<?xml version="1.0" standalone="no"?>
<!DOCTYPE svg PUBLIC "-//W3C//DTD SVG 1.1//EN" "http://www.w3.org/Graphics/SVG/1.1/DTD/svg11.dtd" >
<svg xmlns="http://www.w3.org/2000/svg">
<metadata>Generated by IcoMoon</metadata>
<defs>
<font id="icomoon" horiz-adv-x="1024">
<font-face units-per-em="1024" ascent="960" descent="-64" />
<missing-glyph horiz-adv-x="1024" />
<glyph unicode="&#x20;" horiz-adv-x="512" d="" />
<glyph unicode="&#xe600;" glyph-name="shift-auto" d="M1024.728 701.184c0 58.020-48.27 105.216-106.29 105.216-57.998 0-103.67-47.196-103.67-105.216 0-51.026 35.154-93.654 86.354-103.178v-129.526h-368.64v129.526c40.96 9.522 84.274 52.152 84.274 103.178 0 58.020-47.452 105.216-105.462 105.216-58.020 0-104.898-47.196-104.898-105.216 0-51.026 33.914-93.654 85.114-103.178v-129.526h-368.63v129.526c51.2 9.522 86.406 52.152 86.406 103.178 0 58.020-46.388 105.216-104.398 105.216s-106.496-47.196-106.496-105.216c0-51.026 32.328-93.654 83.528-103.178v-297.86c-51.2-9.524-83.128-52.164-83.128-103.198 0-58 48.036-105.196 106.046-105.196s104.038 47.196 104.038 105.196c0 51.036-34.784 93.676-85.984 103.198v127.376h368.64v-127.376c-51.2-9.524-85.248-52.164-85.248-103.198 0-58 46.962-105.196 104.97-105.196 58 0 105.626 47.196 105.626 105.196 0 51.036-43.428 93.676-84.388 103.198v127.376h384.892c11.244 0 24.698 11.418 24.698 22.67v147.812c40.96 9.524 82.648 52.152 82.648 103.18v0zM446.586 701.184c0 35.534 28.896 64.44 64.43 64.44s64.43-28.908 64.43-64.44c0-35.522-28.898-64.43-64.43-64.43-35.534 0-64.43 28.908-64.43 64.43v0zM41.246 701.184c0 35.534 28.908 64.44 64.43 64.44s64.43-28.908 64.43-64.44c0-35.522-28.908-64.43-64.43-64.43-35.522 0.010-64.43 28.908-64.43 64.43zM170.106 196.936c0-35.522-28.908-64.42-64.43-64.42s-64.43 28.898-64.43 64.42c0 35.544 28.908 64.44 64.43 64.44s64.43-28.898 64.43-64.44zM575.448 196.936c0-35.522-28.898-64.42-64.43-64.42s-64.43 28.898-64.43 64.42c0 35.544 28.896 64.44 64.43 64.44s64.43-28.898 64.43-64.44zM917.37 636.764c-35.534 0-64.43 28.908-64.43 64.43 0 35.534 28.896 64.44 64.43 64.44 35.522 0 64.42-28.908 64.42-64.44s-28.898-64.43-64.42-64.43zM846.59 159.63l-19.478-70.202h-63.71l83.188 273.504h81.158l85.216-273.504h-66.956l-21.102 70.202h-78.318zM915.98 205.89l-17.044 58.028c-4.87 16.232-9.74 36.52-13.798 52.754h-0.812c-4.058-16.23-8.116-36.928-12.58-52.754l-16.23-58.028h60.462z" />
<glyph unicode="&#xe601;" glyph-name="car-doors" horiz-adv-x="1056" d="M316.654 846.010v-260.18c-2.214 0.306-4.462 0.554-6.798 0.554-21.32 0-38.604-13.736-38.604-30.692h45.39v-506.776c0 0 18.474-84.456 92.376-84.456h217.756c73.902 0 92.376 84.456 92.376 84.456v506.766h49.352c0 16.968-17.274 30.692-38.604 30.692-3.764 0-7.322-0.566-10.746-1.376v260.998c-15.822 60.7-99.358 81.824-99.358 81.824h-203.778c0 0.010-83.526-21.126-99.358-81.814h-0.002zM337.766 188.814v349.728h15.832c0 0 83.144-208.526 0-349.728h-15.832zM370.75 93.798l30.356 142.524h238.87l32.986-142.524c0 0-130.642-55.428-302.212 0v0zM699.366 538.542v-349.728h-15.832c-83.144 141.204 0 349.728 0 349.728h15.832zM686.174 633.568l-38.278-131.994h-257.344l-36.956 131.994c151.764 73.892 332.576 0 332.576 0zM686.174 853.956c0-13.868-16.258-25.096-36.29-25.096-20.066 0-36.312 11.228-36.312 25.096 0 13.834 16.246 25.062 36.312 25.062 20.034 0 36.29-11.226 36.29-25.062zM426.18 853.956c0-13.868-16.248-25.096-36.29-25.096s-36.3 11.228-36.3 25.096c0 13.834 16.248 25.062 36.3 25.062 20.056 0 36.29-11.226 36.29-25.062zM714.86 545.412l118.164-191.81-10.888-6.706-118.164 191.808 10.886 6.706zM318.944 545.376l10.888-6.708-118.186-191.808-10.888 6.708 118.186 191.808z" />
<glyph unicode="&#xe602;" glyph-name="patio" d="M483.644 173.856v-186.654h56.71v186.654c-10.884 3.482-20.428 8.16-28.356 13.896-7.894-5.746-17.48-10.424-28.356-13.896zM739.574 420.956c5.53 36.056 5.53 95.62-36.054 102.574 8.336 48.476-11.048 131.666-65.076 139.972-5.582 56.842-19.456 112.272-59.628 121.908 12.462 42.976-15.832 123.392-66.816 123.392s-79.258-80.414-66.806-123.382c-40.172-9.636-54.006-65.064-59.556-121.908-54.058-8.304-73.462-91.484-65.146-139.972-41.574-6.942-41.574-66.508-36.036-102.574-36.034 0-66.54-67.86-19.394-106.702-18.748-22.774-15.492-90.86 63.548-90.86 2.734 0 5.572 0.124 8.52 0.288 7.834-26.132 51.476-40.736 94.28-40.736 18.596 0 37.008 2.724 52.264 8.5 11.826 4.434 21.728 10.702 28.356 18.802 6.656-8.1 16.528-14.366 28.356-18.802 15.268-5.774 33.678-8.5 52.264-8.5 42.802 0 86.426 14.602 94.28 40.736 2.918-0.196 5.796-0.288 8.51-0.288 79.062 0 82.308 68.106 63.56 90.86 47.094 38.83 16.588 106.692-19.424 106.692z" />
<glyph unicode="&#xe603;" glyph-name="offer-tag" horiz-adv-x="1052" d="M929.582 466.669c-101.71 33.69-116.454 89.985-44.245 168.885 72.215 78.9 57.239 102.207-44.918 69.902-102.163-32.304-147.312 4.609-135.438 110.724 11.863 106.121-13.994 116.201-77.587 30.251s-121.897-82.527-174.908 10.268c-53.011 92.8-79.878 85.812-80.612-20.96-0.734-106.766-49.919-138.132-147.561-94.103-97.642 44.040-115.262 22.655-52.856-64.156s41.12-140.986-63.852-162.532c-104.978-21.551-106.612-49.169-4.907-82.858 101.71-33.69 116.454-89.985 44.245-168.885s-57.239-102.201 44.918-69.902c102.157 32.304 147.307-4.609 135.438-110.724s13.994-116.201 77.587-30.245c63.593 85.944 121.892 82.522 174.908-10.273 53.011-92.8 79.889-85.812 80.617 20.96 0.734 106.772 49.919 138.132 147.561 94.103 97.642-44.035 115.257-22.649 52.851 64.161-62.406 86.805-41.12 140.981 63.858 162.532 104.967 21.545 106.606 49.163 4.902 82.853z" />
<glyph unicode="&#xe604;" glyph-name="satellite" d="M640.216 695.182c0-28.038 22.794-50.832 50.832-50.832 28.078 0 50.884 22.804 50.884 50.832s-22.804 50.934-50.884 50.934c-28.048-0.010-50.832-22.906-50.832-50.934zM711.414 695.182c0-11.152-9.164-20.224-20.366-20.224-11.162 0-20.234 9.072-20.234 20.224 0 11.254 9.072 20.274 20.234 20.274 11.202 0 20.366-9.032 20.366-20.274zM643.85 865.72c119.952-0.052 217.824-97.792 217.824-217.796 0-8.488 6.942-15.328 15.278-15.328 8.54 0 15.328 6.83 15.328 15.328 0 136.93-111.524 248.34-248.442 248.34-8.49 0-15.328-6.788-15.328-15.226s6.85-15.318 15.34-15.318zM643.85 797.134c82.258 0 149.248-66.99 149.248-149.248 0-8.438 6.88-15.278 15.268-15.278 8.49 0 15.328 6.83 15.328 15.328 0 99.144-80.712 179.856-179.846 179.856-8.49 0-15.328-6.84-15.328-15.278 0-8.488 6.84-15.38 15.328-15.38zM899.808 172.974l-352.604 352.634 70.698 70.82c6.062 5.97 6.062 15.718 0 21.626-5.97 5.918-15.616 5.918-21.544 0l-70.748-70.82-352.626 352.584c-8.294 8.294-20.522 11.11-31.528 7.322-10.916-3.686-18.964-13.486-20.418-25.028-27.454-211.19 42.876-418.354 192.758-568.37 14.5-14.51 29.584-27.986 45.25-40.94l-90.512-244.366c-3.544-9.41-2.13-19.886 3.584-28.13 5.734-8.202 15.144-13.106 25.088-13.106h270.346c0.196 0 0.584 0 0.584 0 17.020 0 30.556 13.682 30.556 30.556 0 5.918-1.546 11.346-4.424 16.004l-47.268 128.050c77.588-30.168 160.726-46.47 246.734-46.47v0c29.44 0 59.168 1.934 88.422 5.682 11.54 1.496 21.288 9.554 24.934 20.47 3.87 11.018 1.014 23.236-7.28 31.478zM523.674 48.414h-182.528l68.832 185.784c18.822-12.954 38.266-25.028 58.254-35.942l55.438-149.842zM793.732 176.558v0c-165.068 0-320.164 64.082-436.716 180.49-121.026 121.026-184.956 283.218-180.348 452.598l632.874-632.944c-5.294-0.042-10.588-0.144-15.812-0.144z" />
<glyph unicode="&#xe605;" glyph-name="beds12" d="M1021.942 308.994l-112.718 178.454v328.275l-45.883 45.883h-702.684l-45.883-45.883v-328.272l-112.718-178.457h1019.886zM817.457 769.839v-229.054c-59.132 15.296-161.283 34.158-305.459 34.158s-246.327-18.862-305.459-34.158v229.054h610.918zM0 252.531v-91.766h106.916v-126.368h91.766v126.368h626.633v-126.368h91.766v126.368h106.918v91.766zM474.76 622.685v53.458c0 31.73-46.051 57.461-102.857 57.461s-102.854-25.731-102.854-57.461v-80.241c0 0 60.671 15.275 102.372 19.224 37.543 3.558 103.339 7.559 103.339 7.559zM754.951 595.902v80.241c0 31.73-46.051 57.461-102.857 57.461s-102.857-25.731-102.857-57.461v-53.458c0 0 65.799-3.998 103.342-7.559 41.704-3.949 102.372-19.224 102.372-19.224z" />
<glyph unicode="&#xe606;" glyph-name="parking" d="M684.18 602.75h-360.438l-73.638-169.562h-70.168v-193.57h57.186v-43.908c0-21.88 17.728-39.596 39.594-39.596s39.596 17.726 39.596 39.596v43.908h369.88v-43.908c0-21.88 17.726-39.596 39.596-39.596s39.582 17.726 39.582 39.596v43.908h56.832v193.558h-68.050l-69.972 169.574zM300.534 299.53c-6.246-3.686-13.562-5.928-21.47-5.928-22.516 0-40.766 17.34-40.766 38.74 0 21.39 18.25 38.74 40.766 38.74 1.036 0 2.002-0.216 3.014-0.284 21.082-1.49 37.75-18.058 37.75-38.456 0-13.88-7.748-25.964-19.298-32.814zM373.066 527.542h260.79l23.438-56.752h-308.872l24.644 56.752zM725.47 293.604c-7.51 0-14.462 2.082-20.526 5.45-12.048 6.724-20.23 19.046-20.23 33.29 0 21.39 18.25 38.74 40.754 38.74 0.512 0 0.99-0.126 1.502-0.148 21.812-0.75 39.264-17.704 39.264-38.606 0-21.39-18.25-38.73-40.768-38.73zM0 825.47v-657.42h90.796v566.626h842.41v-568.104h90.796v658.898z" />
<glyph unicode="&#xe607;" glyph-name="infant" d="M181.62 245.723h-120.351c0 0-61.269 0.092-61.269-93.264 2.915-60.296 49.954-69.931 58.345-69.931s245.057 0 245.057 0 61.382-0.078 64.092 73.581c0.102 2.811 0.328 0.078 0.361 2.903 0.123 10.875 0 67.085 0 67.085 0.146 7.998 6.255 17.076 14.489 17.076h191.883c2.823 0 5.265-2.282 5.523-5.081l45.325-102.514c16.908-41.923 49.784-72.688 104.709-52.924 51.995 18.715 54.683 59.913 45.504 88.849l-112.705 341.643c-16.941 40.466-59.668 64.071-113.142 64.071h-264.269c-143.049 0-263.047-166.653-100.573-326.858 1.15-2.568-0.17-4.635-2.981-4.635zM1024.002 641.941c0-98.053-79.488-177.54-177.54-177.54s-177.54 79.488-177.54 177.54c0 98.053 79.488 177.54 177.54 177.54s177.54-79.488 177.54-177.54z" />
<glyph unicode="&#xe608;" glyph-name="air" d="M406.466 470.938c-22.63-2.356-71.352 15.114-110.202 43.11-41.554 30.024-67.912 26.154-82.002 9.278-5.448-6.41-77.046-98.018-12.924-244.102 64.122-146.062 174.714-146.022 222.044-121.856 65.884 33.69 87.838 134.37 94.678 181.884-10.67-0.308-21.646 0.922-32.48 3.87-56.198 15.422-90.276 71.538-79.114 127.816zM590.192 534.426c5.55 20.234 47.39 56.852 93.922 77.764 46.756 20.972 56.566 45.752 49.050 66.478-2.846 7.844-46.408 115.63-204.964 133.14-158.596 17.49-213.79-78.254-216.556-131.36-3.726-73.482 71.558-142.418 109.526-172.38 25.13 40.306 74.526 61.134 122.696 47.964 17.448-4.75 32.768-13.476 45.28-24.924 0.41 1.23 0.818 2.356 1.044 3.318zM817.93 512.43c-62.874 40.734-162.754 8.11-206.602-9.606 13.352-24.27 17.716-53.536 9.81-82.35-9.952-36.332-36.966-63.468-70-75.018 0.37-0.41 0.716-0.84 1.044-1.188 14.808-14.93 25.558-69.51 20.438-120.178-5.244-50.996 11.326-71.926 32.994-75.736 8.192-1.434 123.392-17.654 217.888 110.92 94.372 128.572 39.054 224.256-5.572 253.154zM388.834-16.774c-214.056 58.634-354.714 252.682-354.714 464.446v0c0 42.046 5.55 84.828 17.204 127.304v0c58.634 214.222 252.662 354.958 464.426 354.958v0c42.086 0 84.85-5.55 127.324-17.182v0c214.036-58.592 354.714-252.6 354.714-464.444v0c0-42.106-5.55-84.932-17.202-127.508v0c-58.634-214.076-252.64-354.754-464.424-354.754v0c-42.066 0.020-84.808 5.572-127.324 17.182v0zM89.866 564.45c-10.67-39.014-15.77-78.194-15.77-116.756v0c0-194.11 128.962-372.224 325.284-425.842v0c39.034-10.692 78.192-15.79 116.778-15.79v0c194.11 0 372.142 129.004 425.82 325.324v0c10.712 39.076 15.79 78.356 15.79 116.942v0c0 194.172-129.004 372.204-325.284 425.86v0c-38.994 10.67-78.192 15.77-116.778 15.77v0c-194.048-0.040-372.122-129.044-425.842-325.51v0zM536.004 537.088c-47.33 12.964-96.194-14.908-109.158-62.258-12.942-47.37 14.93-96.214 62.26-109.18 47.328-12.942 96.216 14.93 109.178 62.28 12.964 47.35-14.93 96.236-62.28 109.158zM546.714 442.020c-5.16-18.884-24.638-30.004-43.5-24.802-18.862 5.16-29.962 24.616-24.8 43.478 5.14 18.862 24.618 29.984 43.478 24.822 18.904-5.18 29.982-24.618 24.822-43.5z" />
<glyph unicode="&#xe609;" glyph-name="facebook-circle" d="M512 960c-282.752 0-512-229.248-512-512s229.248-512 512-512 512 229.248 512 512c0 282.816-229.248 512-512 512zM644.352 448.064l-83.904-0.064-0.064-307.2h-115.136v307.2h-76.8v105.856l76.8 0.064-0.128 62.336c0 86.4 23.424 138.944 125.12 138.944h84.736v-105.92h-52.992c-39.616 0-41.536-14.784-41.536-42.368l-0.128-52.992h95.232l-11.2-105.856z" />
<glyph unicode="&#xe60a;" glyph-name="lock" d="M788.070 488.704h-46.9v178.074c0 126.618-102.606 229.222-229.222 229.222s-229.17-102.606-229.17-229.222v-178.074h-46.848c-23.040 0-41.676-18.638-41.676-41.676v-399.36c0-22.99 18.638-41.626 41.676-41.626h552.14c23.040 0 41.678 18.688 41.678 41.626v399.36c0 23.040-18.636 41.678-41.678 41.678v0zM558.542 127.59h-93.082l23.552 138.752c-19.2 8.704-32.612 27.956-32.612 50.432 0 30.668 24.832 55.552 55.552 55.552s55.552-24.884 55.552-55.552c0-22.222-13.158-41.268-32-50.126l23.038-139.060zM652.596 488.704h-281.242v164.608c0 77.67 62.976 140.646 140.646 140.646s140.596-62.924 140.596-140.646v-164.608z" />
<glyph unicode="&#xe60b;" glyph-name="flight3" d="M986.192 957.502l-108.358-49.322c-6.939-3.203-13.345-7.58-18.789-13.024l-176.575-176.682-608.085 72.915c-10.996 1.281-22.099-2.455-29.892-10.355l-33.842-33.842c-17.935-17.935-12.384-48.254 10.782-58.609l435.78-195.364-125.119-125.119h-218.531c-9.608 0-18.789-3.843-25.622-10.568l-18.255-18.362c-18.149-18.149-12.17-48.788 11.316-58.824l184.369-79 79-184.367c10.035-23.486 40.781-29.466 58.824-11.317l18.361 18.362c6.832 6.832 10.569 16.013 10.569 25.622v218.531l125.119 125.119 195.364-435.888c10.355-23.165 40.674-28.716 58.608-10.782l33.842 33.842c7.9 7.9 11.636 18.896 10.355 29.892l-73.021 608.085 176.682 176.682c5.446 5.445 9.822 11.743 13.024 18.789l49.322 108.358c10.358 22.313-12.703 45.479-35.229 35.231z" />
<glyph unicode="&#xe60c;" glyph-name="bathtub" d="M909.414 381.124h-673.782v373.71c0 66.006 27.514 69.898 40.736 71.772 25.284 3.676 45.24-18.74 52.756-37.152-26.686-24.176-34.856-64.142-17.142-97.31 3.214-6.042 9.39-9.462 15.78-9.462 2.846 0 5.724 0.676 8.396 2.108l110.388 58.922c4.188 2.232 7.31 6.020 8.694 10.558 1.382 4.536 0.892 9.442-1.342 13.618-14.020 26.256-41.216 42.578-71.024 42.578-7.598 0-15.144-1.23-22.446-3.36-14.838 32.452-48.466 60.63-89.068 54.896-47.432-6.706-71.496-42.772-71.496-107.172v-373.71h-88.238c-76.76-0.020-74.824-105.596 0-105.032 10.752 0.082 17.654-6.010 19.17-20.654 4.25-41.134 23.88-98.222 69.1-141.22 11.132-10.588 4.434-21.74 4.434-21.74l-16.712-34.314c-4.312-8.868-0.626-19.568 8.254-23.9 2.52-1.22 5.182-1.802 7.802-1.802 6.636 0 12.984 3.698 16.098 10.056l16.242 33.342c0 0 4.138 12.872 16.588 7.976 20.152-7.926 43.99-11.654 71.64-11.654h375.418c19.774 0 38.114 4.292 56.054 9.328 15.114 4.25 20.592-15.524 20.592-15.524l11.674-23.5c3.124-6.298 9.442-9.932 16.026-9.932 2.674 0 5.376 0.594 7.926 1.864 8.846 4.384 12.462 15.114 8.068 23.952l-17.306 34.846c0 0-5.458 8.918 5.704 18.616 6.010 5.222 12.012 10.722 17.716 16.846 38.676 41.514 56.698 92.548 65.372 129.24 2.826 11.96 4.054 17.86 17.9 18.176 71.854 1.638 75.222 105.010 0.030 105.032zM410.644 765.082l-72.264-38.584c-1.332 17.162 7.362 34.324 23.5 42.946 6.564 3.492 13.62 5.274 20.982 5.274 10.29 0 20.028-3.492 27.782-9.636zM909.414 311.85h-21.268c-21.606 0.358-25.13-20.582-28.58-32.256-6.596-22.302-13.752-77.342-59.596-126.546-27.884-29.942-61.624-45.106-100.28-45.106h-375.418c-139.756 0-153.724 124.58-160.552 178.914-1.414 11.232-2.58 23.112-22.692 24.996h-29.38c-26.482-0.020-26.482 33.504 0 33.516h797.768c22.672-0.010 24.914-33.536 0-33.516zM804.68 290.222c-9.524 2.6-19.332-3.092-21.894-12.616-0.184-0.696-19.518-70.164-85.442-106.302-8.674-4.74-11.836-15.616-7.096-24.27 2.958-5.418 8.316-8.674 14.020-9.216 3.442-0.328 6.994 0.338 10.25 2.12 79.154 43.398 101.856 124.918 102.778 128.37 2.56 9.564-3.082 19.374-12.616 21.914z" />
<glyph unicode="&#xe60d;" glyph-name="carebed" d="M400.45 640.466c0-39.397-31.937-71.334-71.334-71.334s-71.334 31.937-71.334 71.334c0 39.397 31.937 71.334 71.334 71.334s71.334-31.937 71.334-71.334zM481.076 609.364c-15.938 0.774-31.521-4.969-43.071-15.97-11.582-11.002-18.164-26.262-18.164-42.232v-67.204h388.577c6.098 0 11.55 3.872 13.615 9.679 2 5.775 0.129 12.195-4.646 16.003-42.329 33.747-140.893 89.821-336.311 99.725zM364.767 496.024c0 18.293-12.712 34.167-30.618 38.135l-130.827 28.972c-6.614 1.452-13.486-0.161-18.777-4.388-5.291-4.259-8.324-10.647-8.324-17.39v-55.299h188.546v9.969zM977.025 276.15v281.819c0 20.487-16.583 37.103-37.070 37.103s-37.006-16.648-37.006-37.103v-112.114h-781.833v297.757c0 20.584-16.583 37.103-37.070 37.103-20.519 0-37.070-16.551-37.070-37.103v-467.461c-27.811-13.905-46.975-42.684-46.975-75.915 0-46.814 38.103-84.917 84.884-84.917s84.884 38.103 84.884 84.917c0 33.909-19.939 63.204-48.653 76.819v67.107h781.736v-67.107c-28.746-13.615-48.653-42.91-48.653-76.819 0-46.814 38.071-84.917 84.884-84.917s84.884 38.103 84.884 84.917c0 33.167-19.132 62.010-46.943 75.915zM132.634 200.235c0-26.262-21.39-47.717-47.717-47.717s-47.749 21.423-47.749 47.717c0 10.905 3.678 20.971 9.84 29.005v-5.517c0-20.552 16.551-37.135 37.070-37.135 20.487 0 37.070 16.616 37.070 37.135v7.55c7.162-8.324 11.486-19.197 11.486-31.037zM939.083 152.518c-26.327 0-47.717 21.423-47.717 47.717 0 11.841 4.323 22.713 11.486 31.069v-7.485c0-20.616 16.583-37.167 37.038-37.167 20.552 0 37.038 16.648 37.038 37.167v5.42c6.162-7.969 9.84-18.1 9.84-28.908 0.065-26.391-21.358-47.814-47.685-47.814z" />
<glyph unicode="&#xe60e;" glyph-name="instagram-circle" d="M511.979 345.501c56.488 0 102.54 45.97 102.54 102.499 0 22.315-7.301 42.918-19.386 59.746-18.623 25.821-48.898 42.753-83.092 42.753-34.214 0-64.469-16.911-83.133-42.732-12.127-16.829-19.366-37.432-19.386-59.746-0.062-56.529 45.949-102.52 102.458-102.52zM735.807 573.391v98.704l-98.725-0.309 0.33-98.725zM512 960c-282.316 0-512-229.684-512-512 0-282.295 229.684-512 512-512 282.295 0 512 229.705 512 512 0 282.316-229.664 512-512 512zM803.184 507.746v-238.408c0-62.097-50.486-112.563-112.543-112.563h-357.282c-62.077 0-112.543 50.466-112.543 112.563v357.282c0 62.077 50.466 112.543 112.543 112.543h357.262c62.077 0 112.563-50.466 112.563-112.543v-118.874zM671.276 448c0-87.794-71.44-159.276-159.276-159.276s-159.255 71.481-159.255 159.276c0 21.119 4.207 41.309 11.714 59.746h-86.928v-238.408c0-30.812 25.016-55.766 55.807-55.766h357.262c30.75 0 55.807 24.954 55.807 55.766v238.408h-86.969c7.569-18.437 11.838-38.628 11.838-59.746z" />
<glyph unicode="&#xe60f;" glyph-name="soundproof" d="M841.8 692.040c-85.106 85.064-198.194 131.922-318.514 131.922s-233.432-46.858-318.514-131.922c-85.074-85.094-131.932-198.204-131.932-318.536 0-59.146 11.306-116.664 33.568-170.926 3.246-7.894 12.288-11.674 20.182-8.438s11.684 12.288 8.438 20.192c-6.318 15.4-11.684 31.090-16.088 47.022 16.998-39.966 50.984-70.606 92.59-82.298v-32.062h75.396v345.068h-75.396v-32.050c-59.996-16.886-104.132-73.084-104.388-139.908-2.232 17.624-3.38 35.43-3.38 53.422 0 112.076 43.644 217.416 122.88 296.674 79.238 79.226 184.586 122.87 296.654 122.87s217.404-43.644 296.664-122.87c79.206-79.278 122.838-184.616 122.838-296.694 0-12.164-0.544-24.218-1.568-36.22-7.034 59.126-48.558 107.306-103.332 122.706v32.050h-75.398v-345.078h75.398v32.062c36.384 10.22 66.898 34.918 85.37 67.656-3.616-11.376-7.7-22.682-12.308-33.802-3.256-7.884 0.472-16.916 8.356-20.204 1.924-0.818 3.952-1.188 5.918-1.188 6.072 0 11.818 3.616 14.294 9.544 22.702 54.732 34.202 112.754 34.202 172.472 0 120.33-46.848 233.442-131.932 318.536zM523.284 534.446l-217.712-176.538h36.802v-210.944h144.61v105.688h72.582v-105.688h145.654v210.944h35.748z" />
<glyph unicode="&#xe610;" glyph-name="linkedin-circle" d="M512 960c-282.752 0-512-229.248-512-512s229.248-512 512-512 512 229.248 512 512c0 282.816-229.248 512-512 512zM384 200h-128v448h128v-448zM323.968 675.456c-33.152 0-59.968 26.88-59.968 60.032s26.88 60.032 59.968 60.032c33.152-0.064 60.032-26.944 60.032-60.032 0-33.152-26.88-60.032-60.032-60.032zM832 200h-128v276.992c0 32.448-9.28 55.168-49.152 55.168-66.112 0-78.848-55.168-78.848-55.168v-276.992h-128v448h128v-42.816c18.304 14.016 64 42.752 128 42.752 41.472 0 128-24.832 128-174.848v-273.088z" />
<glyph unicode="&#xe611;" glyph-name="meet" horiz-adv-x="566" d="M500.274 754.444l-103.892-60.954-0.64-44.656-137.162-158.11c-11.682-13.468-10.24-33.852 3.23-45.544 13.468-11.676 33.87-10.246 45.546 3.236l86.96 100.226-2.094-146.7c0-17.214 11.704-31.646 27.584-35.876-0.3-1.822-0.492-3.666-0.492-5.568v-312.020l-43.786-10.376c-19.138 0-34.65-15.512-34.65-34.662 0-19.126 15.512-16.054 34.65-16.054h74.878c1.17-0.12 2.354-0.188 3.558-0.188 19.142 0 34.656 15.524 34.656 34.65v338.648c0 1.658-0.158 3.28-0.384 4.882 17.402 3.094 30.626 18.268 30.626 36.562l18.578 315.33c0 20.528-16.638 37.172-37.168 37.172zM525.628 837.14c0-39.578-32.084-71.664-71.664-71.664s-71.664 32.086-71.664 71.664c0 39.58 32.084 71.664 71.664 71.664s71.664-32.084 71.664-71.664zM65.478 754.44l103.892-60.95 0.64-44.656 137.162-158.11c11.682-13.468 10.238-33.852-3.23-45.544-13.468-11.676-33.862-10.246-45.546 3.226l-86.95 100.236 2.092-146.7c0-17.214-11.71-31.646-27.578-35.876 0.294-1.822 0.486-3.666 0.486-5.568v-312.020l43.786-10.376c19.138 0 34.65-15.512 34.65-34.662 0-19.126-15.512-16.054-34.65-16.054h-74.888c-1.172-0.12-2.358-0.188-3.558-0.188-19.138 0-34.65 15.524-34.65 34.65v338.648c0 1.658 0.158 3.28 0.386 4.882-17.4 3.094-30.626 18.268-30.626 36.562l-18.588 315.33c0 20.528 16.644 37.168 37.172 37.168zM183.45 837.134c0-39.578-32.086-71.664-71.664-71.664s-71.664 32.086-71.664 71.664c0 39.578 32.086 71.664 71.664 71.664s71.664-32.086 71.664-71.664z" />
<glyph unicode="&#xe612;" glyph-name="rain-umbrella3" d="M1024 412.439c-24.886 17.883-62.657 29.298-104.967 29.298-65.509 0-120.17-27.354-132.886-63.732h-5.458c-12.405 36.615-67.233 64.209-133.027 64.209-42.379 0-80.132-11.487-105.004-29.422v-307.926c0-76.638-62.347-138.98-138.982-138.98s-138.982 62.344-138.982 138.98c0 16.935 13.724 30.657 30.658 30.657s30.658-13.722 30.658-30.657c0-42.824 34.84-77.664 77.665-77.664s77.664 34.84 77.664 77.664v307.425c-24.879 17.945-62.65 29.445-105.049 29.445-65.511 0-120.171-27.354-132.886-63.732h-5.456c-12.407 36.615-67.235 64.209-133.027 64.209-42.284 0-80.036-11.398-104.92-29.261 19.995 218.33 225.43 391.879 481.34 404.803v22.918c0 16.936 13.724 30.658 30.658 30.658s30.658-13.724 30.658-30.658v-22.921c256.090-12.952 461.62-186.755 481.342-405.313zM74.063 871.332c0 0-44.442-87.73-44.442-112.274s19.898-44.442 44.442-44.442 44.442 19.898 44.442 44.442c0 24.546-44.442 112.274-44.442 112.274zM199.883 930.115c0 0-33.339-65.812-33.339-84.226s14.927-33.339 33.339-33.339 33.339 14.927 33.339 33.339-33.339 84.226-33.339 84.226z" />
<glyph unicode="&#xe613;" glyph-name="car-window" d="M303.248 408.064c-11.008 0-19.938-8.94-19.938-19.896 0-11.048 8.928-19.978 19.938-19.978 10.966 0 19.896 8.928 19.896 19.978 0.010 10.956-8.928 19.896-19.896 19.896zM148.664 126.934l36.752-126.414h829.9c0 0 0 50.268 0 126.414h-866.652zM1015.306 137.328c0 240.354 0 715.222 0 734.586 0 25.99-22.496 19.086-22.496 19.086l-585.646-0.040c0 0-24.238 1.74-98.754-27.7s-299.726-254.678-299.726-254.678l136.97-471.254h869.652zM305.848 352.184h-124.744c-15.35 0-28.508 9.256-34.192 22.496h106.066c6.696 0 12.146 5.438 12.146 12.104 0 6.698-5.438 12.144-12.146 12.144h-107.244c4.3 15.842 18.146 27.74 35.368 27.74h124.744c20.552 0 37.242-16.692 37.242-37.284 0-20.552-16.69-37.202-37.242-37.202zM426.168 835.982c133.438 0 538.86 0 538.86 0v-367.34h-847.236l-43.326 121.294c0 0 218.266 246.048 351.702 246.048z" />
<glyph unicode="&#xe614;" glyph-name="salute2" d="M479.891 718.802c66.499 0 120.588 54.1 120.588 120.599s-54.1 120.599-120.588 120.599c-66.499 0-120.599-54.1-120.599-120.599s54.1-120.599 120.599-120.599zM783.837 939.555c-5.798 6.488-14.279 10.217-23.283 10.217h-14.735c-17.74 0-33.845-14.335-35.881-31.953l-20.022-172.006c-0.913-7.779-8.559-16.939-16.049-19.232l-118.362-36.082h-183.881c-17.106 0-34.401-12.821-39.365-29.204l-98.429-324.736c-2.727-8.993-1.38-18.063 3.695-24.897s13.366-10.762 22.76-10.762h25.041c17.106 0 34.401 12.821 39.365 29.204l28.146 92.864v-431.334c0-30.684 24.963-55.647 55.647-55.647h3.918c30.684 0 55.647 24.963 55.647 55.647v291.225h23.661v-291.214c0-30.684 24.963-55.647 55.647-55.647h3.929c30.684 0 55.647 24.963 55.647 55.647v616.45l128.657 47.156c15.336 5.62 28.792 22.726 30.651 38.964l25.108 221.042c1.013 8.948-1.725 17.807-7.512 24.296z" />
<glyph unicode="&#xe615;" glyph-name="wheel-chair" d="M672.962 205.21c-15.76 5.786-33.26-2.346-39.034-18.104-17.038-46.54-49.706-86.898-91.894-113.624 0 0 0 0-0.052-0.042-21.198-13.466-44.432-23.246-68.986-28.98v-0.020h-0.022c-16.946-4.056-34.5-6.104-52.132-6.104-23.192 0-46.182 3.544-68.25 10.414-18.464 5.846-36.278 14.152-52.98 24.688-43.152 27.424-76.176 68.924-92.96 116.868 0 0.042 0 0.042 0 0.042-5.202 14.932-8.9 30.812-10.884 47.096 0 0.042-0.020 0.062-0.020 0.062v0.042c-1.178 9.482-1.76 18.822-1.76 27.658 0 39.926 10.578 79.278 30.638 113.756 0.020 0 0.020 0.020 0.020 0.062 9.8 16.886 21.616 32.316 35.144 45.926 11.868 11.93 11.776 31.202-0.122 43.048-11.95 11.858-31.2 11.736-43.070-0.132-17.132-17.286-32.112-36.864-44.564-58.214 0-0.082 0-0.082-0.040-0.124-25.436-43.756-38.872-93.654-38.872-144.322 0-11.326 0.748-23.164 2.242-35.104 0-0.020 0-0.020 0-0.020 0-0.020 0-0.020 0-0.020s0 0 0-0.042v-0.042c2.528-20.624 7.178-40.716 13.814-59.75h0.040c21.29-60.846 63.15-113.428 117.78-148.204 0 0 0 0 0.040-0.020 0.020 0 0.020 0 0.020 0 21.134-13.322 43.766-23.9 67.236-31.294h0.040c0.040-0.020 0.040-0.020 0.040-0.020 28.006-8.746 57.088-13.188 86.466-13.188 22.404 0 44.656 2.61 66.212 7.722 0 0 0.082 0 0.122 0.020 31.036 7.374 60.488 19.73 87.398 36.762 0.020 0.020 0.062 0.062 0.062 0.062 53.442 33.904 94.762 85.052 116.438 144.086 5.786 15.822-2.336 33.26-18.116 39.054v0zM463.596 843.94c0-35.534-28.806-64.338-64.338-64.338s-64.338 28.806-64.338 64.338c0 35.532 28.806 64.338 64.338 64.338s64.338-28.806 64.338-64.338zM864.082 95.468l-58.062 284.384c0 0.646 0.174 1.23 0.174 1.854-0.522 27.442-23.134 49.244-50.566 48.754h-0.88c-0.288 0-0.544 0-0.818 0l-241.234-4.27-16.322 217.016c-1.916 27.35-34.62 48.866-79.77 48.866-39.876 0-77.66-28.356-75.694-55.706l19.516-282.542c1.116-16.784 10.598-30.976 23.9-39.034 0.040-0.042 0.122-0.042 0.122-0.042 0.85-0.462 1.74-0.922 2.692-1.424 7.466-4.198 15.976-6.698 25.14-6.514l302.908 4.332 51.938-236.924c5.836-26.716 32.276-43.684 59.096-37.816 26.716 5.846 43.694 32.398 37.856 59.062h0.002z" />
<glyph unicode="&#xe616;" glyph-name="pool" horiz-adv-x="1170" d="M1170.286 49.788c-20.316-8.134-40.644-16.268-65.020-16.268-48.766 0-81.266 32.51-130.030 32.51-48.754 0-81.264-32.51-130.020-32.51-48.766 0-81.276 32.51-130.030 32.51-48.766 0-81.264-32.51-130.030-32.51s-81.264 32.51-130.030 32.51c-48.766 0-81.264-32.51-130.030-32.51s-81.264 32.51-130.030 32.51c-48.766 0-81.266-32.51-130.030-32.51-24.376 0-44.692 8.098-65.022 16.232v-97.532c20.304-8.134 40.622-16.22 65.010-16.22 48.766 0 81.264 32.5 130.030 32.5s81.276-32.5 130.030-32.5 81.264 32.5 130.030 32.5c48.766 0 81.276-32.5 130.030-32.5 48.766 0 81.264 32.5 130.030 32.5 48.754 0 81.264-32.5 130.030-32.5 48.754 0 81.264 32.5 130.020 32.5 48.766 0 81.266-32.5 130.030-32.5 24.376 0 44.692 8.122 65.020 16.254v97.532zM1170.286 244.826c-20.316-8.122-40.644-16.254-65.020-16.254-48.766 0-81.266 32.5-130.030 32.5-48.754 0-81.264-32.5-130.020-32.5-48.766 0-81.276 32.5-130.030 32.5-48.766 0-81.264-32.5-130.030-32.5s-81.264 32.5-130.030 32.5c-48.766 0-81.264-32.5-130.030-32.5s-81.264 32.5-130.030 32.5c-48.766 0-81.266-32.5-130.030-32.5-24.376 0-44.692 8.086-65.022 16.22v-97.52c20.316-8.122 40.632-16.22 65.022-16.22 48.766 0 81.264 32.5 130.030 32.5s81.276-32.5 130.030-32.5 81.264 32.5 130.030 32.5c48.766 0 81.276-32.5 130.030-32.5 48.766 0 81.264 32.5 130.030 32.5 48.754 0 81.264-32.5 130.030-32.5 48.754 0 81.264 32.5 130.020 32.5 48.766 0 81.266-32.5 130.030-32.5 24.376 0 44.692 8.122 65.020 16.254v97.52zM195.052 326.092v32.51h325.082v-48.766c20.316-8.122 40.632-16.254 65.020-16.254 11.634 0 22.282 1.918 32.5 4.728v336.608c0 125.478 102.084 227.55 227.562 227.55s227.55-102.084 227.55-227.55c0-26.94 21.814-48.766 48.754-48.766s48.766 21.826 48.766 48.766c0 179.264-145.84 325.082-325.070 325.082-173.776 0-315.72-137.146-324.262-308.826h-325.082c8.39 117.882 106.742 211.294 226.73 211.294 38.808 0 75.274-9.936 107.256-27.174 17.822 27.946 39.182 53.424 63.57 75.694-49.714 30.908-108.122 49.012-170.826 49.012-179.242 0-325.082-145.818-325.082-325.082v-336.598c32.652 9 60.398 27.77 97.532 27.77zM195.052 553.654h325.082v-97.52h-325.082v97.52z" />
<glyph unicode="&#xe617;" glyph-name="sleeping" d="M942 300v-164h82v246h-942v336c0 10.672-4 20.338-12 29-8 8.666-17.666 13-29 13s-21-4.334-29-13-12-18.334-12-29v-582h82v164h860zM211 550c20.666 0 38.666 7.334 54 22 15.334 14.668 23 32.336 23 53 0 20.67-7.666 38.336-23 53-15.334 14.666-33.334 22-54 22s-38.334-7.334-53-22-22-32.334-22-53 7.334-38.334 22-53c14.666-14.666 32.334-22 53-22zM1024 444v100c0 16-5.666 29-17 39-11.34 10-25.674 16.334-43 19l-598 58c-10.666 0-19.666-3.666-27-11s-11-16.334-11-27v-116h-152c-25.334 0-38-10.334-38-31s12.666-31 38-31h848z" />
<glyph unicode="&#xe618;" glyph-name="casino" horiz-adv-x="1286" d="M1113.844 343.854l-379.572-77.198c-20.35-4.15-45.27-22.37-55.372-40.526l-4.53-8.154c-10.106-18.154-1.712-29.596 18.624-25.49l379.558 77.216c20.352 4.14 45.27 22.378 55.368 40.512l4.542 8.168c10.116 18.168 1.724 29.62-18.618 25.474v0zM740.298 781.69l-77.924-15.87c-20.35-4.134-33.62-24.174-29.48-44.528l78.26-384.828c4.148-20.35 24.186-33.62 44.536-29.494l384.842 78.274c20.35 4.134 33.614 24.174 29.488 44.536l-78.276 384.842c-4.142 20.356-24.174 33.62-44.536 29.47l-306.912-62.402zM288.998 585.51h-143.514c-20.778 0-37.76-17.002-37.76-37.778v-392.702c0-20.778 16.99-37.756 37.76-37.756h392.726c20.756 0 37.76 16.978 37.76 37.756v313.142l48.23-237.172c4.134-20.342 16.168-22.37 26.736-4.496l18.272 30.966c10.568 17.892 15.828 49.172 11.686 69.522l-74.734 367.472c-4.15 20.356-16.168 22.37-26.73 4.488l-18.288-30.952c-10.562-17.884-15.798-49.162-11.676-69.528l3.236-15.886c-4.476 1.876-9.358 2.932-14.482 2.932l-249.222-0.008zM220.924 184.35c-23.938 0-43.318 19.4-43.318 43.306 0 23.93 19.388 43.332 43.318 43.332 23.924 0 43.316-19.4 43.316-43.332 0-23.91-19.394-43.306-43.318-43.306zM220.924 419.4c-23.938 0-43.318 19.398-43.318 43.338 0 23.916 19.388 43.316 43.318 43.316 23.924 0 43.316-19.398 43.316-43.316 0-23.938-19.394-43.338-43.318-43.338zM449.114 506.058c23.938 0 43.332-19.398 43.332-43.316 0-23.938-19.4-43.338-43.332-43.338-23.93 0-43.318 19.398-43.318 43.338 0 23.916 19.388 43.316 43.318 43.316zM449.114 270.976c23.938 0 43.332-19.398 43.332-43.332 0-23.9-19.4-43.304-43.332-43.304-23.93 0-43.318 19.4-43.318 43.304 0 23.938 19.388 43.332 43.318 43.332zM756.338 628.786c-23.924 0-43.316 19.398-43.316 43.324 0 23.918 19.394 43.318 43.316 43.318 23.93 0 43.332-19.4 43.332-43.318 0-23.93-19.4-43.324-43.332-43.324zM901.452 532.212c-23.918 0-43.318 19.4-43.318 43.318 0 23.938 19.4 43.326 43.318 43.326 23.924 0 43.318-19.388 43.318-43.326 0-23.918-19.394-43.318-43.318-43.318v0zM1060.050 433.688c-23.938 0-43.316 19.398-43.316 43.316 0 23.924 19.382 43.318 43.316 43.318 23.916 0 43.318-19.394 43.318-43.318s-19.394-43.316-43.318-43.316zM67.582 562.72l-18.552-28.46c-8.174-12.528-14.838-35.014-14.838-49.952v-286.408c0-14.954 8.194-36.28 18.208-47.384l11.816-13.090c10.016-11.104 18.208-7.938 18.208 7.010v413.87c0 14.946-6.678 16.942-14.852 4.412l0.010 0.004z" />
<glyph unicode="&#xe619;" glyph-name="twitter-circle" d="M512 960c-282.316 0-512-229.684-512-512 0-282.295 229.684-512 512-512 282.295 0 512 229.705 512 512 0 282.316-229.664 512-512 512zM740.406 565.183c0.227-5.073 0.351-10.188 0.351-15.303 0-155.728-118.503-335.236-335.318-335.236-66.552 0-128.505 19.448-180.642 52.899 9.219-1.093 18.602-1.65 28.11-1.65 55.23 0 106.026 18.85 146.365 50.445-51.559 0.949-95.095 35.019-110.088 81.855 7.177-1.361 14.581-2.124 22.15-2.124 10.745 0 21.18 1.402 31.059 4.104-53.91 10.807-94.518 58.426-94.518 115.554 0 0.495 0 1.011 0.021 1.485 15.88-8.806 34.049-14.127 53.353-14.725-31.595 21.098-52.404 57.189-52.404 98.065 0 21.613 5.795 41.866 15.942 59.272 58.097-71.316 144.963-118.214 242.883-123.164-2.021 8.641-3.032 17.613-3.032 26.872 0 65.067 52.755 117.843 117.822 117.843 33.905 0 64.49-14.313 86.021-37.205 26.872 5.28 52.033 15.055 74.863 28.605-8.868-27.532-27.491-50.61-51.889-65.212 23.861 2.846 46.63 9.157 67.686 18.541-15.715-23.593-35.699-44.361-58.736-60.922z" />
<glyph unicode="&#xe61a;" glyph-name="umbrella27" d="M542.654 847.148v22.916c0 16.932-13.721 30.654-30.654 30.654s-30.654-13.721-30.654-30.654v-22.916c-255.918-12.919-461.354-186.471-481.346-404.798 24.884 17.86 62.637 29.261 104.918 29.261 65.799 0 120.622-27.594 133.027-64.207h5.456c12.72 36.375 67.379 63.729 132.888 63.729 42.407 0 80.173-11.502 105.057-29.449v-307.418c0-42.822-34.844-77.662-77.662-77.662-42.82 0-77.664 34.842-77.664 77.662 0 16.932-13.721 30.654-30.654 30.654s-30.654-13.721-30.654-30.654c0-76.635 62.349-138.986 138.984-138.986s138.959 62.351 138.959 138.986v307.92c24.871 17.936 62.624 29.425 105.007 29.425 65.799 0 120.622-27.594 133.027-64.207h5.456c12.718 36.375 67.377 63.729 132.888 63.729 42.307 0 80.084-11.414 104.968-29.3-19.718 218.569-225.253 392.37-481.348 405.315z" />
<glyph unicode="&#xe61b;" glyph-name="terrace" d="M604.16 668.16c0-31.106-25.216-56.32-56.32-56.32s-56.32 25.216-56.32 56.32c0 31.106 25.214 56.32 56.32 56.32s56.32-25.214 56.32-56.32zM645.12 570.88c0 16.968-13.764 30.72-30.72 30.72h-133.12c-16.968 0-30.72-13.752-30.72-30.72 0-0.87 0.184-1.7 0.256-2.56-0.142-0.84-0.256-1.69-0.256-2.56v-163.84c0-8.48 6.87-15.36 15.36-15.36s15.36 6.88 15.36 15.36v138.24h10.24v-353.28c0-14.14 11.46-25.6 25.6-25.6s25.6 11.458 25.6 25.6v199.68h10.24v-199.68c0-14.14 11.458-25.6 25.6-25.6s25.6 11.458 25.6 25.6v353.28h10.24v-138.24c0-8.48 6.88-15.36 15.36-15.36s15.36 6.88 15.36 15.36v163.84c0 0.87-0.124 1.72-0.256 2.56 0.072 0.86 0.256 1.69 0.256 2.56zM716.8 499.2v-358.4h-358.4v798.72h-133.12v-972.8h133.12v112.64h419.84v419.84z" />
<glyph unicode="&#xe61c;" glyph-name="fridge" horiz-adv-x="479" d="M0.146 521.043c160.204 0 319.16 0 478.967 0 0-194.966 0-389.653 0-585.043-19.702 0-39.365 0-59.781 0-0.36 6.298-0.711 12.4-1.111 19.313-119.397 0-238.432 0-358.335 0 0-6.060 0-12.191 0-19.165-20.163 0-39.487 0-59.737 0-0.002 194.524-0.002 389.203-0.002 584.894zM79.389 166.219c0 104.85 0 208.748 0 312.63-13.875 0-26.97 0-40.229 0 0-104.449 0-208.332 0-312.63 13.641 0 26.444 0 40.229 0zM0 561.473c0 133.906 0 265.87 0 398.527 159.467 0 318.252 0 479.147 0 0-6.409 0-12.848 0-19.286-0.052-123.040-0.167-246.080 0-369.12 0.013-7.577-1.613-10.259-9.759-10.249-152.324 0.22-304.651 0.142-456.977 0.126-3.76 0.002-7.52 0.002-12.41 0.002zM79.306 605.427c0 104.947 0 208.874 0 312.691-13.946 0-27.024 0-40.118 0 0-104.626 0-208.548 0-312.691 13.693 0 26.526 0 40.118 0z" />
<glyph unicode="&#xe61d;" glyph-name="plane2" d="M876.586 302.13v105.668l-313.488 173.742v163.552c0 28.242-22.866 71.516-51.108 71.516-28.212 0-51.086-43.284-51.086-71.516v-163.552l-313.488-173.742v-105.668l313.476 88.576v-179.856l-112.444-76.39v-55.072l163.544 46.172 163.552-46.172v55.072l-112.434 76.39v179.856l313.476-88.576z" />
<glyph unicode="&#xe61e;" glyph-name="gamepad" horiz-adv-x="1170" d="M1056.44-58.773c-82.223-21.924-166.844 27.274-189.044 109.897l-36.929 137.601c-30.78-8.979-125.333-33.27-245.223-33.27-118.875 0-214.258 24.353-245.223 33.27l-36.991-137.601c-22.17-82.622-106.822-131.821-189.014-109.897-82.161 21.893-130.837 106.637-108.667 189.198l56.055 208.601c-15.59 33.055-24.568 69.862-24.568 108.882 0 141.353 114.57 255.892 255.923 255.892 69.708 0 132.774-27.951 178.959-73.121h73.582c11.070 14.36 64.819 110.542-10.824 135.080-81.669 26.475-165.552 39.728-203.066 77.272-37.544 37.514 22.047 116.969 22.047 116.969l52.98-6.611c0 0-2.214 2.183-30.872-61.836-28.719-64.019 119.214-46.339 209.708-99.319 90.463-52.98 41.942-158.941 41.942-158.941s-2.275-1.045-5.935-2.614h77.518c46.123 45.17 109.251 73.121 178.959 73.121 141.322 0 255.892-114.601 255.892-255.892 0-39.020-8.948-75.827-24.599-108.882l56.055-208.601c22.201-82.592-26.444-167.305-108.667-189.198v0zM438.971 484.499h-109.681v109.651h-73.090v-109.651h-109.681v-73.152h109.681v-109.651h73.090v109.651h109.681v73.152zM877.697 557.589c-60.606 0-109.651-49.137-109.651-109.651 0-60.575 49.075-109.681 109.651-109.681s109.681 49.137 109.681 109.681c0.031 60.514-49.075 109.651-109.681 109.651v0z" />
<glyph unicode="&#xe61f;" glyph-name="spa" d="M398.316 522.844c-10.076 31.13-49.674 61.798-35.204 116.93 9.678 36.894 20.686 61.38 20.736 61.552 4.722 12.278 1.678 26.368-7.598 35.256-9.266 8.918-22.784 10.732-33.874 4.576-4.558-2.54-101.836-63.354-87.040-164.486 4.946-33.7 23.072-45.926 40.878-81.972 15.402-31.19-12.78-90.952-30.322-131.030-5.162-11.766-2.98-25.722 5.5-35.114 5.746-6.34 13.568-9.738 21.556-9.738 3.81 0 7.65 0.768 11.314 2.366 48.334 21.034 130.202 90.214 94.054 201.656zM561.11 545.504c-10.076 34.592-49.674 68.668-35.206 129.926 9.678 40.99 20.684 68.198 20.736 68.392 4.71 13.65 1.678 29.298-7.588 39.178-9.268 9.902-22.784 11.93-33.884 5.090-4.558-2.816-101.836-70.39-87.040-182.774 4.936-37.438 23.060-51.026 40.868-91.076 15.412-34.652-12.77-101.068-30.322-145.592-5.17-13.086-2.99-28.58 5.488-39.004 5.746-7.066 13.578-10.844 21.556-10.844 3.81 0 7.65 0.86 11.314 2.632 48.344 23.388 130.202 100.27 94.074 224.072zM727 522.844c-10.096 31.13-49.696 61.798-35.206 116.93 9.678 36.894 20.684 61.38 20.726 61.552 4.73 12.278 1.7 26.368-7.578 35.256-9.256 8.918-22.794 10.732-33.884 4.576-4.568-2.54-101.836-63.354-87.050-164.486 4.946-33.7 23.082-45.926 40.888-81.972 15.4-31.19-12.78-90.952-30.332-131.030-5.172-11.766-2.99-25.722 5.5-35.114 5.734-6.34 13.558-9.738 21.544-9.738 3.808 0 7.65 0.768 11.304 2.366 48.342 21.034 130.202 90.214 94.086 201.656zM915.938 352.072c-36.292 141.342-133.336 158.074-138.63 158.72-11.878 1.444-23.254-4.75-28.508-15.42-5.274-10.68-3.206-23.512 5.11-32.020 0.512-0.512 68.762-62.454 59.26-123.924-12.41-80.25-179.14-115.784-301.168-115.784v0 0c-122.030 0-288.778 35.534-301.178 115.774-9.554 61.798 58.83 123.484 59.26 123.936 8.334 8.51 10.382 21.34 5.12 32.020-5.262 10.67-16.65 16.824-28.518 15.42-5.304-0.644-102.35-17.368-138.618-158.72-14.562-56.73-5.642-106.528 26.552-148.028 91.392-117.812 320.654-114.432 371.302-114.432 3.132 0 5.17 0.030 6.072 0.042 0.88-0.010 2.928-0.042 6.062-0.042 0.010 0 0.010 0 0.010 0 50.678 0 279.9-3.37 371.302 114.432 32.196 41.472 41.124 91.29 26.572 148.028z" />
<glyph unicode="&#xe620;" glyph-name="golf-field" horiz-adv-x="1295" d="M-1.683 107.564c15.125 27.698 25.018 60.913 46.812 81.58 23.632 22.389 58.349 33.085 93.765 51.797 0 232.374 0 473.657 0 719.058 14.464-1.476 27.18-0.622 38.446-4.247 104.41-33.59 208.56-67.958 312.776-102.144 2.137-0.712 4.053-2.124 9.699-5.141-42.836-14.179-82.603-27.439-122.448-40.518-62.532-20.512-125.025-41.14-187.712-61.146-13.234-4.221-21.159-8.78-21.081-25.471 0.712-157.113 0.414-314.213 0.531-471.326 0-4.856 1.152-9.712 1.994-16.264 65.834 6.617 125.504 26.986 173.96 70.055 33.137 29.447 61.742 64.448 89.777 99.062 27.582 34.056 50.722 71.687 77.877 106.119 53.312 67.608 124.559 97.093 209.622 89.143 122.409-11.434 242.047-35.96 355.327-85.659 22.376-9.816 44.196-21.12 65.342-33.357 70.431-40.751 128.599-92.717 153.604-173.766 0-23.671 0-47.329 0-71.001-22.027-63.115-63.917-110.457-119.586-145.368-31.337-19.644-64.112-37.747-98-52.444-124.442-53.947-256.123-81.684-390.381-90.023-142.221-8.844-285.052-7.951-427.623-10.489-27.776-0.492-55.604 3.885-83.432 4.209-86.863 1.088-152.115 33.124-179.269 121.697 0 15.215 0 30.431 0 45.646zM139.308 179.459c-12.716-2.875-22.014-3.82-30.418-7.057-38.356-14.736-64.669-41.101-67.543-83.29-2.564-37.579 18.66-64.526 50.554-81.153 47.42-24.681 94.853-22.169 138.492 9.531 41.256 29.977 47.588 79.495 17.002 120.001-18.867 24.992-44.727 37.074-79.094 40.984 0-30.936 0-60.68 0-92.199-11.667 0.738-19.566 1.23-28.993 1.813 0 30.599 0 59.139 0 91.37z" />
<glyph unicode="&#xe621;" glyph-name="fm" horiz-adv-x="960" d="M206.99 639.44l481.92 228.4c12.196-5.068 26.132-5.6 38.932 0.532 24.002 11.336 34.274 39.996 22.928 64.132-11.398 23.992-40.13 34.264-64.132 22.794-12.86-6-21.258-17.070-25.058-29.592l-604.184-286.266h-57.396v-703.44h959.97v703.44h-752.98zM144.198 82.134h-32v231.052h32v-231.052zM260.258 82.134h-32v231.052h32v-231.052zM376.388 82.134h-32v231.052h32v-231.052zM492.384 82.134h-32v231.052h32v-231.052zM732.246 82.134c-63.732 0-115.456 51.732-115.456 115.598 0 63.732 51.732 115.456 115.456 115.456 63.794 0 115.528-51.732 115.528-115.456 0-63.876-51.732-115.598-115.528-115.598zM847.77 424.382h-735.572v119.736h735.572v-119.736z" />
<glyph unicode="&#xe622;" glyph-name="children" horiz-adv-x="852" d="M674.468 805.336c-50.196 0-90.798-40.53-90.798-90.532 0-50.134 40.602-90.666 90.798-90.666 49.94 0 90.542 40.53 90.542 90.666 0 50.002-40.602 90.532-90.542 90.532zM838.462 289.066c-10.26-4.404-22.2 0.654-26.604 10.802l-42.25 176.394-5.806-187.464h-0.144l16.804-309.996c1.066-18.668-12.86-34.796-31.456-36.126-0.87-0.144-1.668-0.144-2.54-0.144-17.602 0-32.604 13.6-33.596 31.468l-38.606 292.526-38.256-292.526c-1.404-17.87-16.27-31.468-33.936-31.468-0.726 0-1.526 0-2.458 0.144-18.544 1.332-32.604 17.458-31.396 36.126l16.528 309.996-5.682 187.464c0 0-112.598-113.468-119.604-116.532-12.258-5.202-26.4 0.544-31.662 12.8l-91.474 199.066 69.334-336.27h-66.918l-20.676-275.2c0-13.198-10.866-24.126-24.002-24.126-13.598 0-24.27 10.926-24.27 24.126l-20.604 275.2h-24.33l-20.604-275.2c0-13.198-10.732-24.126-24.27-24.126-13.2 0-24.002 10.926-24.002 24.126l-20.736 275.2h-66.846l69.262 336.27-91.402-199.066c-5.202-12.256-19.466-18.002-31.734-12.8-12.134 5.202-17.868 19.342-12.534 31.744 0 0 54.332 197.592 79.462 249.068 25.068 51.404 50.134 82.668 145.736 82.668h19.662c95.54 0 120.668-31.264 145.736-82.668 18.402-37.6 52.132-152.934 69.070-212.408 24.34 33.208 57.344 80.004 69.94 106.138 21.198 43.47 53.996 69.6 134.534 69.6h16.404c80.6 0 113.202-26.132 134.534-69.6 21.198-43.202 32.206-218.532 32.206-218.532 4.466-10.538-0.472-22.272-10.812-26.674zM391.138 791.736c0-26-21.996-47.072-49.336-47.072-19.068 0-35.062 10.598-43.264 25.732-18.668-15.34-41.534-25.732-67.534-25.732-26.132 0-48.938 10.404-67.604 25.732-8.202-15.134-24.27-25.732-43.264-25.732-27.332 0-49.336 21.074-49.336 47.072 0 25.928 21.996 47.062 49.336 47.062 2.068 0 3.932-0.932 6.002-1.198-0.736 4.996-3 9.462-3 14.736 0 59.464 48.26 107.664 107.868 107.664 59.534 0 107.734-48.2 107.734-107.664 0-5.274-2.202-9.738-2.94-14.736 1.998 0.266 3.86 1.198 6 1.198 27.332 0 49.336-21.134 49.336-47.062z" />
<glyph unicode="&#xe623;" glyph-name="washing-machine" horiz-adv-x="1049" d="M0 42.796c0 280.149 0 560.293 0 840.437 10.8 4.564 21.591 13.103 32.401 13.127 328.197 0.706 656.39 0.706 984.588 0 10.805-0.023 21.596-8.558 32.401-13.127 0-280.144 0-560.293 0-840.437-10.113-4.341-20.222-12.453-30.344-12.477-329.567-0.664-659.13-0.664-988.697 0-10.132 0.023-20.235 8.135-30.349 12.477zM527.037 701.025c-133.871 0-267.742 0.014-401.613-0.009-36.278-0.005-37.318-1.11-37.318-38.149 0-171.788-0.009-343.576 0.005-515.364 0-30.818 2.415-33.441 32.619-33.45 269.293-0.056 538.576-0.056 807.868 0 30.228 0.009 32.661 2.647 32.666 33.399 0.019 171.017 0.009 342.034 0.009 513.047 0 40.299-0.2 40.522-39.593 40.522-131.545 0.014-263.094 0.005-394.643 0.005zM364.517 746.362c32.587-0.084 57.981 24.716 58.050 56.685 0.074 31.992-25.176 57.243-57.34 57.349-31.728 0.107-58.283-25.608-58.557-56.699-0.274-31.282 25.928-57.256 57.846-57.335zM219.958 860.387c-31.988 0.084-57.962-25.297-58.115-56.783-0.153-31.737 25.343-57.094 57.6-57.28 31.76-0.186 58.436 25.705 58.482 56.76 0.042 31.050-26.43 57.219-57.967 57.303zM684.083 746.464c32.034-0.348 58.468 25.12 58.64 56.49 0.167 31.036-26.207 57.229-57.846 57.442-32.141 0.218-57.953-24.907-58.134-56.588-0.181-32.313 24.498-56.992 57.34-57.345zM830.398 746.399c32.392 0.46 57.53 25.84 57.145 57.688-0.385 31.417-26.625 56.616-58.617 56.3-31.565-0.316-57.814-26.708-57.47-57.786 0.348-31.235 27.001-56.657 58.942-56.202zM106.796 971.455c281.69 0 563.39 0 845.080 0 28.696-16.228 57.386-32.461 86.082-48.69-1.035-1.495-2.066-2.995-3.102-4.49-340.214 0-680.415 0-1020.62 0-0.501 1.662-1.003 3.315-1.504 4.973 31.352 16.070 62.708 32.136 94.064 48.207zM125.369-64c-17.645 17.974-12.086 40.095-9.008 60.781 0.752 5.061 12.124 11.599 19.010 12.105 21.424 1.588 43.043 0.543 64.584 0.636 16.2 0.065 24.484-7.708 23.597-24.071-0.957-17.589 6.222-37.694-14.603-49.451-27.86 0-55.72 0-83.579 0zM840.437-64c-13.582 11.905-21.601 48.156-12.114 62.731 3.501 5.372 12.226 9.872 18.819 10.243 22.237 1.258 44.659 1.453 66.859-0.088 6.863-0.483 18.197-7.039 18.982-12.124 3.195-20.686 8.641-42.774-8.966-60.762-27.86 0-55.72 0-83.579 0zM523.522 586.164c-92.727-0.005-185.449-0.009-278.18 0-6.18 0-13.173-1.732-18.341 0.576-6.705 2.995-11.952 9.24-17.83 14.083 5.488 5.154 10.313 11.497 16.693 15.049 4.165 2.322 10.582 0.687 15.987 0.687 188.546 0.014 377.087 0.009 565.632 0.009 3.092 0 6.835 1.114 9.157-0.223 8.116-4.699 15.745-10.243 23.56-15.467-8.2-4.903-16.349-13.99-24.596-14.074-97.347-0.989-194.717-0.636-292.082-0.641z" />
<glyph unicode="&#xe624;" glyph-name="wi-fi" d="M405.37 305.778c61.88 61.88 162.56 61.88 224.522-0.082l74.866 74.866c-103.168 103.158-271.134 103.24-374.262 0.102l74.876-74.884zM255.16 454.974c144.374 144.374 379.432 144.344 523.878-0.102l74.854 74.854c-185.712 185.712-487.854 185.754-673.536 0.072l74.802-74.824zM105.534 604.6c226.928 226.918 596.174 226.918 823.174-0.072l74.812 74.824c-268.268 268.268-704.594 268.268-972.8 0.072l74.814-74.824zM486.4 169.492h61.44v-204.8h-61.44v204.8zM609.782 179.732c0-50.9-41.26-92.16-92.16-92.16s-92.16 41.26-92.16 92.16c0 50.9 41.262 92.16 92.16 92.16 50.9 0 92.16-41.26 92.16-92.16z" />
<glyph unicode="&#xe625;" glyph-name="stereo" d="M748.76 385.372c-79.658 0-144.486-64.818-144.486-144.486s64.828-144.486 144.486-144.486c79.668 0 144.498 64.818 144.498 144.486s-64.828 144.486-144.498 144.486zM748.76 121.202c-66.1 0-119.684 53.576-119.684 119.684s53.576 119.684 119.684 119.684 119.684-53.576 119.684-119.684-53.586-119.684-119.684-119.684zM796.64 240.876c0-26.438-21.432-47.872-47.872-47.872s-47.872 21.432-47.872 47.872c0 26.438 21.432 47.872 47.872 47.872 26.438 0 47.872-21.432 47.872-47.872zM800.092 710.020c-41.83 0-75.746-33.914-75.746-75.756s33.914-75.756 75.746-75.756c41.85 0 75.756 33.914 75.756 75.756s-33.904 75.756-75.756 75.756zM800.092 572.928c-33.884 0-61.326 27.452-61.326 61.326s27.452 61.326 61.326 61.326c33.894 0 61.338-27.452 61.338-61.326s-27.452-61.326-61.338-61.326zM824.38 634.254c0-13.416-10.876-24.288-24.288-24.288s-24.288 10.876-24.288 24.288c0 13.416 10.876 24.288 24.288 24.288 13.414 0 24.288-10.876 24.288-24.288zM931.052 830.566h-364.574c-3.89 0-7.034-3.144-7.034-7.026v-808.48c0-3.87 3.144-7.024 7.034-7.024h364.576c3.88 0 7.024 3.154 7.024 7.024v808.49c-0.010 3.88-3.144 7.014-7.024 7.014zM800.092 719.176c46.9 0 84.932-38.030 84.932-84.92s-38.030-84.92-84.932-84.92c-46.89 0-84.91 38.030-84.91 84.92s38.020 84.92 84.91 84.92zM648.172 526.428c24.35 0 44.092-19.742 44.092-44.082s-19.744-44.082-44.092-44.082c-24.34 0-44.072 19.742-44.072 44.082s19.732 44.082 44.072 44.082zM748.76 81.254c-88.156 0-159.62 71.466-159.62 159.63s71.466 159.63 159.62 159.63 159.63-71.476 159.63-159.642-71.476-159.62-159.63-159.62zM648.172 520.458c-21.044 0-38.102-17.060-38.102-38.114s17.060-38.114 38.102-38.114c21.064 0 38.114 17.060 38.114 38.112s-17.060 38.112-38.114 38.112zM648.172 453.572c-15.904 0-28.784 12.872-28.784 28.786 0 15.904 12.882 28.786 28.784 28.786 15.924 0 28.794-12.882 28.794-28.786-0.010-15.914-12.872-28.786-28.794-28.786zM658.852 482.346c0-5.9-4.782-10.68-10.68-10.68-5.9 0-10.68 4.782-10.68 10.68 0 5.9 4.782 10.68 10.68 10.68 5.9 0 10.68-4.782 10.68-10.68zM153.006 240.876c0-79.668 64.828-144.486 144.498-144.486 79.656 0 144.486 64.818 144.486 144.486s-64.83 144.486-144.486 144.486c-79.668 0.010-144.498-64.808-144.498-144.486zM177.828 240.876c0 66.1 53.576 119.684 119.686 119.684s119.686-53.576 119.686-119.684-53.576-119.684-119.686-119.684-119.686 53.586-119.686 119.684zM345.376 240.876c0-26.438-21.432-47.872-47.872-47.872s-47.872 21.432-47.872 47.872c0 26.438 21.432 47.872 47.872 47.872s47.872-21.432 47.872-47.872zM170.424 634.254c0-41.842 33.914-75.756 75.756-75.756 41.83 0 75.746 33.914 75.746 75.756 0 41.85-33.916 75.756-75.746 75.756-41.85 0.010-75.756-33.904-75.756-75.756zM184.842 634.254c0 33.884 27.454 61.326 61.338 61.326s61.326-27.452 61.326-61.326-27.442-61.326-61.326-61.326c-33.894 0-61.338 27.452-61.338 61.326zM270.468 634.254c0-13.416-10.876-24.288-24.288-24.288-13.414 0-24.288 10.876-24.288 24.288 0 13.416 10.876 24.288 24.288 24.288 13.416 0 24.288-10.876 24.288-24.288zM108.196 823.552v-808.48c0-3.87 3.144-7.024 7.026-7.024h364.574c3.892 0 7.036 3.154 7.036 7.024v808.48c0 3.88-3.144 7.024-7.036 7.024h-364.574c-3.882-0.010-7.026-3.144-7.026-7.024zM331.090 634.254c0-46.89-38.022-84.92-84.91-84.92-46.9 0-84.932 38.030-84.932 84.92s38.032 84.92 84.93 84.92c46.89 0 84.91-38.020 84.91-84.92zM442.174 482.346c0-24.34-19.732-44.082-44.072-44.082-24.35 0-44.094 19.742-44.094 44.082s19.742 44.082 44.094 44.082c24.34 0 44.072-19.742 44.072-44.082zM137.882 240.876c0 88.156 71.466 159.63 159.632 159.63s159.62-71.466 159.62-159.63-71.466-159.63-159.62-159.63-159.632 71.476-159.632 159.63zM359.988 482.346c0-21.052 17.050-38.114 38.112-38.114 21.044 0 38.104 17.060 38.104 38.112s-17.060 38.112-38.104 38.112c-21.064 0-38.112-17.060-38.112-38.112zM369.306 482.346c0 15.904 12.872 28.786 28.796 28.786 15.904 0 28.786-12.882 28.786-28.786 0-15.914-12.882-28.786-28.786-28.786-15.924 0.010-28.796 12.882-28.796 28.786zM408.772 482.346c0-5.9-4.782-10.68-10.68-10.68s-10.68 4.782-10.68 10.68c0 5.9 4.782 10.68 10.68 10.68 5.9 0 10.68-4.782 10.68-10.68z" />
<glyph unicode="&#xe626;" glyph-name="cabin" horiz-adv-x="1112" d="M1111.888-11.859c-27.835 0-54.599 0-82.856 0 0-12.307 0-24.089 0-36.442-119.133 0-236.778 0-356.030 0 0 11.843 0 23.627 0 36.452-28.628 0-55.675 0-83.53 0 0 324.329 0 647.581 0 971.85 173.816 0 347.702 0 522.414 0 0.002-323.284 0.002-646.858 0.002-971.859zM1060.286 360.876c-140.003 0-279.478 0-418.613 0 0-48.607 0-96.157 0-143.6 139.935 0 278.893 0 418.613 0 0 48.084 0 95.637 0 143.6zM684.593 874.135c0-29.622 0-58.077 0-86.728 42.782 0 84.762 0 126.401 0 0 29.549 0 58.033 0 86.728-42.402 0-83.859 0-126.401 0zM889.908 787c42.943 0 84.634 0 126.509 0 0 29.428 0 58.217 0 86.616-42.61 0-84.312 0-126.509 0 0-29.013 0-57.195 0-86.616zM684.324 630.154c42.894 0 84.918 0 126.698 0 0 28.992 0 57.079 0 85.056-42.682 0-84.431 0-126.698 0 0-28.507 0-56.311 0-85.056zM889.971 629.979c42.547 0 84.51 0 126.667 0 0 28.843 0 56.936 0 84.974-42.656 0-84.62 0-126.667 0 0-28.763 0-56.54 0-84.974zM1016.624 471.696c0 28.99 0 57.111 0 84.998-42.666 0-84.624 0-126.565 0 0-28.782 0-56.542 0-84.998 42.334 0 84.020 0 126.565 0zM231.116 342.015c-12.253 0-22.617 0-34.338 0 0-4.754 0-8.92 0-13.084-0.012-113.124-0.016-226.248-0.044-339.372-0.005-27.611-12.365-45.339-34.005-51.667-27.872-8.155-57.765 11.362-59.817 42.619-0.254 3.872-0.24 7.77-0.24 11.654-0.009 125.566 0.886 251.139-0.499 376.689-0.476 43.167 5.911 84.685 15.647 126.282 11.187 47.786 21.297 95.823 32.23 145.351-10.518 2.515-20.762 4.964-32.687 7.814-3.322-14.269-6.727-28.32-9.853-42.43-12.535-56.582-24.915-113.196-37.497-169.769-4.143-18.623-16.797-30.389-32.78-31.133-17.646-0.821-30.471 7.427-35.346 23.916-1.703 5.759-2.554 12.547-1.264 18.299 19.165 85.592 36.585 171.67 59.239 256.343 10.070 37.637 41.924 58.24 81.286 64.049 28.343 4.182 55.166-5.125 82.413-9.979 41.854-7.457 83.456-16.328 125.305-23.823 35.393-6.34 57.104-28.315 72.388-59.136 33.697-67.96 67.795-135.722 101.75-203.554 6.939-13.86 14.269-27.532 20.881-41.544 11.572-24.518 2.141-46.12-22.645-52.787-13.405-3.604-28.201 2.169-36.452 16.291-9.167 15.691-17.009 32.171-25.073 48.483-23.496 47.524-47.063 95.016-69.987 142.816-4.322 9.013-9.393 14.49-21.040 13.884-3.693-17.138-7.66-34.751-11.262-52.442-10.49-51.511-20.874-103.045-31.161-154.598-1.050-5.267-1.64-10.716-1.642-16.083-0.091-129.45-0.040-258.902-0.098-388.355-0.012-25.71-13.583-43.914-35.591-49.365-27.756-6.874-56.692 12.498-57.753 43.736-0.173 5.050-0.068 10.107-0.068 15.162 0 110.402 0 220.804 0.002 331.208 0 4.584 0 9.167 0 14.523zM385.724 852.913c0.182-44.77-34.098-80.78-80.169-80.232-47.723 0.564-79.668 35.598-80.025 80.685-0.355 45.008 36.19 79.791 81.016 79.539 44.441-0.25 79.481-35.651 79.178-79.992zM825.909 304.644c-5.104-20.333-9.977-39.727-15.337-61.070-41.24 10.445-82.175 20.809-123.999 31.401 5.174 20.66 10.098 40.333 15.29 61.067 41.639-10.541 82.667-20.926 124.045-31.399z" />
<glyph unicode="&#xe627;" glyph-name="electric" horiz-adv-x="826" d="M782.222 689.778v78.222c0 11.776-9.564 21.33-21.34 21.33-11.766 0-21.33-9.554-21.33-21.33v-78.222h-85.33v78.222c0 11.776-9.564 21.33-21.34 21.33-11.766 0-21.33-9.554-21.33-21.33v-78.222h-42.67v-42.67c0-60.896 42.568-111.77 99.564-124.722v-159.724l42.558-313.978c-0.604-30.864-25.784-55.798-56.78-55.798-31.356 0-56.862 25.486-56.894 56.832h0.010v398.234l-0.010 0.050c0 47.052-38.278 85.33-85.33 85.33h-85.34v343.706c0.010 45.752-38.266 82.964-85.33 82.964h-256c-47.052 0-85.33-37.212-85.33-82.964v-941.036h426.67v540.448h85.33c15.678 0 28.436-12.77 28.436-28.448l0.010-0.052v-398.162h-0.010c0-62.74 51.036-113.778 113.778-113.778 62.74-0.010 113.788 51.026 113.788 113.766l-42.67 314.82v157.798c56.986 12.954 99.552 63.816 99.552 124.722v42.67h-42.66zM107.766 209.418l61.266 122.522h-76.584l107.214 183.808h76.574l-76.574-122.532h91.894l-183.788-183.798zM369.776 658.964c0-14.376-12.77-26.070-28.448-26.070h-256c-15.676 0-28.448 11.694-28.448 26.070v218.072c0 14.378 12.77 26.072 28.448 26.072h256c15.678 0 28.448-11.694 28.448-26.072v-218.072z" />
<glyph unicode="&#xe628;" glyph-name="car-wheel" d="M593.050 411.432c0-44.762-36.288-81.050-81.050-81.050s-81.050 36.288-81.050 81.050c0 44.762 36.286 81.050 81.050 81.050 44.762 0 81.050-36.286 81.050-81.050zM512 960c-282.766 0-512-229.232-512-512 0-282.758 229.234-512 512-512 282.758 0 512 229.242 512 512 0 282.768-229.242 512-512 512zM512 876.412c183 0 339.098-114.78 400.486-276.244-0.654-22.896-6.88-49.162-30.658-56.166-101.878-39.188-186.972 45.066-375.050 47.678-188.088-2.61-272.334-86.866-374.2-47.678-16.926 4.988-24.832 19.732-28.14 36.076 55.686 171.94 217.056 296.336 407.562 296.336zM624.322 411.432c0-62.044-50.278-112.332-112.322-112.332s-112.322 50.288-112.322 112.332c0 62.034 50.288 112.322 112.322 112.322s112.322-50.298 112.322-112.322zM214.036 176.322c-13.158-5.98-27.156-0.84-40.224 8.846-47.79 61.408-79.3 136.1-87.838 217.682 11.582 11.868 29.798 16.764 54.998 8.582 57.068-18.514 130.54-208.978 73.062-235.11zM664.556 50.924c-3.462-2.304-5.97-4.352-7.67-6.154-45.26-16.282-94.024-25.18-144.886-25.18-57.724 0-112.752 11.5-163 32.184-57.518 38.798-31.396 72.684-2.878 121.948 28.734 49.634 160.656 33.946 160.656 33.946s132.762 15.678 161.496-33.946c28.744-49.644 55.51-83.64-3.716-122.798zM873.738 218.604c-18.914-24.166-47.298-53.79-72.654-42.28-57.456 26.132 16.056 216.596 73.124 235.11 31.56 10.22 52.152 0 62.504-18.822-8.182-63.406-30.208-122.418-62.976-174.008z" />
<glyph unicode="&#xe629;" glyph-name="arrive" horiz-adv-x="1012" d="M999.809-32.481v0c43.694 58.446-40.435 141.516-40.435 141.516l-222.162 209.545 126.941 469.526c-20.338 214.184-137.744 82.621-137.744 82.621l-173.749-377.74-164.599 174.888-0.722 224.104c-50.356 148.836-108.545 20.065-108.545 20.065l-39.215-191.438-188.019-36.711c0 0-127.069-57.194 17.754-111.193l219.289-4.655 168.323-171.164-372.699-170.875c0 0-130.825-117.63 78.447-142.126l461.789 121.483 222.162-209.545c0 0 85.478-93.536 143.747-38.718 0.738 0.674 1.397 1.364 2.103 2.039 0.803 0.819 1.605 1.605 2.408 2.488 1.782 1.926 3.419 3.885 4.928 5.891 0 0 0 0 0 0z" />
<glyph unicode="&#xe62a;" glyph-name="business-person" horiz-adv-x="1008" d="M512.942 557.056l1.044-0.032h1.178c107.694 0.87 194.99 91.996 194.55 203.090-1.372 110.622-90.614 200.294-198.932 199.884-52.594-0.654-101.888-21.842-138.752-59.73-37.406-38.462-57.632-89.334-56.852-143.258 0.082-54.732 21.198-105.666 59.36-143.524 37.18-36.844 86.406-56.872 138.404-56.432zM839.74-63.222l167.2 0.196-114.514 377.294c-17.972 62.3-96.144 172-231.044 175.154h-59.832c0.298-1.024 0.962-1.894 1.116-2.94l0.88-4.658-0.522-5.56c-1.424-15.492-14.048-34.458-38.472-57.12l41.892-270.93-88.576-106.434-37.028 43.592-52.716 61.472 37.652 271.432c-24.73 22.17-37.682 40.98-39.506 57.384l-0.798 4.046 1.178 6.062c0.226 1.29 1.004 2.416 1.404 3.644l-76.584-0.010c-137.86-0.798-217.498-112.742-235.52-175.83l-115.948-377.57 169.462 0.216 72.366 249.16 50.872 0.030-72.264-249.17 567.89 0.544-72.674 249.068 51.068 0.052 73.020-249.12zM539.342 437.504c29.87 26.604 33.076 39.404 33.322 42.536 0.144 0.552 0 0.778-0.020 0.85-0.502 2.734-2.61 5.622-5.674 8.366-3.698 3.318-8.846 6.502-14.88 9.144-11.182 5.038-25.202 8.478-37.652 8.324-12.134-0.020-25.888-3.616-36.864-8.684-6.022-2.744-11.202-5.94-14.92-9.288-3.256-2.888-5.428-5.918-6.022-8.868 0 0 0.020-0.154 0-0.4 0.132-2.346 2.262-15.052 34.058-42.384l7.68-6.616-38-274.268 43.704-50.904 7.894-9.102 5.796-6.942 5.806 6.984 7.772 9.246 42.866 51.62-42.342 273.674 7.476 6.706z" />
<glyph unicode="&#xe62b;" glyph-name="depart" horiz-adv-x="1012" d="M999.809 936.011v0c0 0.016 0 0.016 0 0-1.509 2.007-3.146 3.965-4.944 5.891-0.803 0.883-1.605 1.669-2.408 2.488-0.69 0.674-1.364 1.364-2.103 2.039-58.253 54.818-143.747-38.718-143.747-38.718l-222.162-209.513-461.773 121.483c-209.272-24.496-78.447-142.126-78.447-142.126l372.715-170.891-168.339-171.164-219.289-4.655c-144.823-54.016-17.754-111.193-17.754-111.193l188.019-36.711 39.215-191.438c0 0 58.189-128.771 108.545 20.065l0.722 224.104 164.599 174.888 173.749-377.74c0 0 117.406-131.548 137.744 82.621l-126.941 469.526 222.178 209.529c0 0.016 84.113 83.070 40.419 141.516z" />
<glyph unicode="&#xe62c;" glyph-name="room-service" d="M744.592 622.88c73.062 0 132.27 59.228 132.27 132.27v76.576h-264.562l-63.784-62.658h63.784v-13.916c0-73.042 59.25-132.27 132.29-132.27zM876.86 873.504v85.862h-328.376l58.030-85.862zM837.938 577.956h-178.872c-29.38 0-56.084-11.378-76.134-29.83l-181.156-98.458-178.3 88.106c-2.14 22.56-18.206 40.182-37.938 40.182-20.572 0-37.212-19.14-38.194-43.080-4.896-4.526-9.134-9.882-12.268-16.21-11.254-22.734-5.478-49.234 12.082-65.75v-87.092h-60.774v-61.4h60.796v-154.336c0-24.976 17.182-45.22 38.38-45.22s38.368 20.244 38.368 45.22v261.918l180.316-89.098 142.254 77.322v-464.23h404.010v529.376c0 62.178-50.4 112.58-112.568 112.58z" />
<glyph unicode="&#xe62d;" glyph-name="flightplushotel" horiz-adv-x="3264" d="M1497.983 281.939h-67.579c-6.217 0-11.263 5.031-11.263 11.263v337.894c0 6.217 5.046 11.248 11.263 11.248h67.579c6.217 0 11.263-5.031 11.263-11.248v-337.894c0-6.217-5.046-11.263-11.263-11.263v0zM1633.156 417.097h-337.909c-6.217 0-11.248 5.031-11.248 11.263v67.579c0 6.217 5.031 11.263 11.248 11.263h337.909c6.202 0 11.248-5.046 11.248-11.263v-67.579c0-6.217-5.046-11.263-11.248-11.263v0zM1110.231 451.983c0.015 2.823 0 5.602-0.3 8.2-0.075 0.676 0.015 1.261-0.075 1.952h-0.27c-9.656 66.993-119.825 62.203-119.825 62.203l-285.588 8.365-225.098 385.845c-154.65 122.243-145.925-42.124-145.925-42.124l133.521-359.61-224.587-1.877-148.148 142.006c-131.539 60.070-85.3-61.812-85.3-61.812l100.107-148.674-100.708-152.578c0 0-46.705-123.684 85.074-58.523l148.719 147.772 224.587 6.803-134.947-364.821c0 0-9.356-164.697 145.79-36.463l226.629 394.57 285.603-8.365c0 0 110.169-0.526 120.080 66.873h0.27c0.090 0.676 0 1.246 0.075 1.907 0.285 2.658 0.33 5.481 0.315 8.35zM3107.877 450.196v-143.973h-1037.411v575.562h-156.197v-863.162h156.197v143.973h1037.411v-143.973h156.182v431.574h-156.182zM2175.709 371.519h116.491c36.387 0 65.972 27.182 65.972 60.701 0 33.504-29.585 60.701-65.972 60.701h-116.491c-36.463 0-66.002-27.197-66.002-60.701 0.015-33.519 29.554-60.701 66.002-60.701zM2299.859 525.388c58.854 0 106.669 43.926 106.669 98.094 0 54.123-47.816 98.064-106.669 98.064-58.959 0-106.685-43.926-106.685-98.064 0.015-54.183 47.726-98.094 106.685-98.094zM2477.652 371.519h506.121c39.286 0 71.123 29.269 71.123 65.386s-27.332 58.869-71.123 65.386l-506.121 98.094c-40.577 4.325-71.123-127.319-71.123-163.481 0-36.147 31.792-65.386 71.123-65.386z" />
<glyph unicode="&#xe62e;" glyph-name="hotel" horiz-adv-x="1350" d="M1193.608 450.196v-143.973h-1037.411v575.562h-156.197v-863.162h156.197v143.973h1037.411v-143.973h156.182v431.574h-156.182zM261.455 371.519h116.491c36.387 0 65.972 27.182 65.972 60.701 0 33.504-29.585 60.701-65.972 60.701h-116.491c-36.463 0-66.002-27.197-66.002-60.701 0.015-33.519 29.539-60.701 66.002-60.701zM385.605 525.388c58.854 0 106.669 43.926 106.669 98.094 0 54.123-47.816 98.064-106.669 98.064-58.959 0-106.685-43.926-106.685-98.064 0-54.183 47.726-98.094 106.685-98.094zM563.398 371.519h506.121c39.286 0 71.123 29.269 71.123 65.386s-27.332 58.869-71.123 65.386l-506.121 98.094c-40.577 4.325-71.123-127.319-71.123-163.481-0.015-36.147 31.777-65.386 71.123-65.386z" />
<glyph unicode="&#xe62f;" glyph-name="fitness" d="M118.954 102.658c48.098 0 87.040 39.084 87.040 87.192 0 48.086-38.942 87.082-87.040 87.082-48.106 0-87.204-38.976-87.204-87.082s39.084-87.192 87.204-87.192zM818.75 596.884c-2.836 1.898-5.85 3.46-8.87 4.768l-300.572 89.724c-1.222 0.424-2.466 0.798-3.742 1.114l-0.448 0.13-0.010-0.010c-3.46 0.84-7.048 1.344-10.78 1.344-23.132 0-45.74-27.060-45.74-46.33l-0.338-211.188-210.598-197.232c-27.42-34.654-12.962-76.128-12.962-76.128 15.1-45.924 66.734-47.542 66.734-47.542l375.774-0.12c20.044 0 36.324 16.378 36.324 36.706 0 20.36-16.28 36.728-36.324 36.728l-259.428 0.424 109.254 109.932c15.614 16.226 23.558 34.424 23.558 58.136 0 21.332-1.702 207.85-1.93 232.454l235.412-71.568c19.456-8.414 42.62-2.182 55.438 15.57 14.544 20.48 9.722 48.774-10.746 63.090zM796.644 615.576l95.714 95.932c16.51 13.312 21.746 36.716 12.002 56.324-11.37 22.39-38.658 31.272-60.842 19.804-3-1.638-5.794-3.568-8.358-5.64l-136.828-137.080 98.31-29.34zM611.162 557.594l-57.35-57.438v-127.956l155.278 155.626zM802.11 514.526c-113.74 0-205.942-92.2-205.942-205.942 0-39.846 11.35-77.024 30.946-108.546l45.37-0.076c25.686 0 46.538-20.972 46.538-47.048 0-10.672-3.524-20.438-9.416-28.316 27.822-14.010 59.236-21.954 92.518-21.954 113.73 0 205.928 92.19 205.928 205.928s-92.212 205.952-205.942 205.952z" />
<glyph unicode="&#xe630;" glyph-name="kitchen" d="M1024 622.192h-141.036l-5.96-72.622 141.948 29.768zM0 622.192l5.068-42.854 141.692-29.716-5.938 72.57zM454.748 783.236c0-1.464 0.39-2.856 0.604-4.27-82.052-7.486-143.124-29.644-175.186-43.9-64.696-28.764-85.75-57.16-86.098-64.246 3.634-18.544 106.906-67.82 317.83-67.82 210.914 0 314.184 49.276 317.838 68.014-0.37 6.902-21.422 35.296-86.108 64.050-32.072 14.254-93.144 36.404-175.186 43.9 0.206 1.424 0.604 2.806 0.604 4.27 0 9.574-4.722 18.268-12.34 25.262-10.456 9.616-26.532 15.914-44.8 15.914-18.258 0-34.344-6.288-44.8-15.914-7.63-7.004-12.36-15.688-12.36-25.262zM857.918 658.36l-40.582-487.456c-4.188-48.774-136.746-99.318-305.45-99.318-168.694 0-300.338 51.496-305.45 99.318l-40.562 487.454c0 0 28.18-82.944 346.020-83.926 317.828-0.994 346.020 83.926 346.020 83.926z" />
<glyph unicode="&#xe631;" glyph-name="shower" horiz-adv-x="1120" d="M583.596 868.562l-51.466-28.332 25.274-25.274 49.606 29.766zM634.85 816.46l-46.11-32.848 26.202-26.192 44.384 34.124zM681.318 769.274l-38.896-39.332 24.478-24.49 39.11 38.694zM728 721.728l-33.62-43.758 26.202-26.202 31.984 44.98zM780.62 668.258l-28.702-47.826 26.27-26.27 27.336 48.754zM497.358 821.030l-55.038-30.348 27.986-27.972 53.324 32.050zM557.182 761.206l-49.896-35.478 28.7-28.702 48.396 36.98zM615.502 702.884l-42.48-42.906 23.918-23.918 42.908 42.48zM670.978 647.42l-36.98-48.408 28.69-28.69 35.48 49.896zM731.708 586.668l-32.040-53.324 28.476-28.478 30.696 54.68zM407.488 771.558l-42.974-23.704 30.416-30.404 41.686 24.982zM475.814 703.244l-38.986-27.704 30.842-30.84 37.752 28.914zM546.192 632.856l-33.194-33.484 23.346-23.336 33.474 33.182zM610.572 568.462l-28.904-37.764 30.842-30.83 27.692 38.974zM679.404 499.656l-24.994-41.698 30.416-30.404 23.986 42.682zM973.486 413.304l-0.124 466.686c0.022 0.258 0.044 0.514 0.068 0.784l0.078 0.65v0.134c1.928 20.534-4.928 41.764-20.634 57.458-27.972 27.974-73.4 27.974-101.374 0-1.164-1.164-2.274-2.408-3.35-3.64l-0.146 0.146-68.258-68.258c-8.874 8.828-19.662 19.626-31.682 31.848-25.754 26.17-38.504 32.376-65.894 26.35-27.39-6.038-60.326-35.76-60.326-35.76l204.808-204.798c0 0 29.722 32.924 35.76 60.326 6.028 27.39-0.236 40.206-26.404 65.962-7.708 7.584-14.856 14.676-21.296 21.106l66.97 66.98 0.292-0.28c0.594 0.762 1.21 1.512 1.928 2.218 9.646 9.646 25.328 9.646 34.976 0 4.37-4.37 6.732-9.992 7.136-15.706v-472.208h-926.010c0 0 6.732-23.638 71.776-274.288 25.734-99.156 46.918-96.208 102.058-96.712h38.258l-0.134-0.302c0.044 0 0.090 0 0.134 0l-17.968-106h56.832l22.618 106.302h573.11l22.618-106.302h56.832l-17.97 106c0.044 0 0.1 0 0.146 0l-0.146 0.302h38.27c55.14 0.504 76.324-2.442 102.056 96.712 65.042 250.65 71.788 274.288 71.788 274.288h-146.79z" />
<glyph unicode="&#xe632;" glyph-name="bus" horiz-adv-x="836" d="M794.882 808.692c-11.244 56.61-47.332 79.172-101.702 101.692-53.14 22.294-180.936 48.808-275.416 49.616-94.656-0.808-222.45-27.322-275.97-49.626-53.978-22.52-90.068-45.080-101.128-101.692l-40.666-312.428v-431.046h70.046v-67.222c-0.278-82.654 120.278-82.654 120.33 0v67.222h454.794v-67.222c-0.144-82.654 120.422-82.654 120.33 0v67.222h70.048v431.046l-40.666 312.436zM245.74 880.992h344.060c33.65 0.092 33.65-50.682 0-50.846h-344.060c-33.814 0.164-33.814 50.938 0 50.846zM129.926 200.222c-31.758 0.154-57.666 26.032-57.626 58.188-0.040 31.736 25.868 57.626 57.626 57.626 32.116 0 58.014-25.89 58.2-57.626-0.184-32.156-26.082-58.044-58.2-58.188zM413.536 463.504h-306.764c-29.954-0.286-36.254 21.31-33.314 42.93l31.624 227.112c4.352 27.342 13.682 45.5 49.708 45.756h525.99c35.822-0.256 45.182-18.404 49.71-45.756l31.644-227.112c2.724-21.63-3.564-43.216-33.344-42.93h-315.252zM705.060 200.222c-31.746 0.154-57.634 26.032-57.634 58.188 0 31.736 25.89 57.626 57.634 57.626 32.126 0 58.034-25.89 58.178-57.626-0.144-32.156-26.052-58.044-58.178-58.188zM413.536 960.072c1.382 0 2.836-0.062 4.24-0.072 1.404 0.010 2.846 0.072 4.24 0.072h-8.478z" />
<glyph unicode="&#xe633;" glyph-name="restaurant" horiz-adv-x="372" d="M270.304-16.556c-0.214-26.040 20.668-47.23 46.646-47.444 26.020-0.214 47.218 20.638 47.432 46.636l7.73 923.17c0.378 45.646-29.298 50.762-50.068 50.926-20.852 0.174-59.402-58.34-68.144-112.33-8.824-53.938-60.996-332.126 21.69-386.89l-5.29-474.068zM49.914-14.728l6.31 594.65c-33.842 0.276-50.488 40.582-56.226 69.746l20.484 307.496 27.716-248.206 25.968 247.778 27.684-248.226 31.902 247.726 21.76-248.176 31.86 247.726 15.288-307.812c-6.146-29.062-21.076-69.092-55-68.818l-3.604-594.658c-0.214-26.020-21.506-46.872-47.474-46.648-25.978 0.214-46.872 21.404-46.668 47.424v0 0z" />
<glyph unicode="&#xe634;" glyph-name="elder" horiz-adv-x="440" d="M395.96 348.672v-394.538c0-9.932-8.132-18.134-18.134-18.134s-18.134 8.202-18.134 18.134v394.538c0 15.658-12.738 28.456-28.538 28.456-15.596 0-28.396-12.8-28.396-28.456 0-9.942-8.202-18.074-18.134-18.074-10.004 0-18.134 8.13-18.134 18.074 0 26.604 16.056 49.132 38.86 59.126-45.926 68.27-71.466 143.534-85.198 206.336l-82.78-234.538c-0.062-0.134-0.328-0.266-0.4-0.328 3-10.066 53.996-190.136-6.532-394.138-6.072-20.53-24.802-33.658-45.138-33.658-4.404 0-8.94 0.604-13.404 1.924-24.934 7.332-39.198 33.596-31.796 58.532 48.138 162.346 14.070 311.336 7.404 337.202-51.14 99.666-61.060 191.672-29.4 273.604 50.534 130.796 189.266 182.528 195.132 184.73 24.33 8.94 51.598-3.726 60.396-28.13 3.132-8.602 2.13-28.866 2.13-30.668 0-1.668 1.74-180.326 96.87-311.736 8.868-12.328 8.796-28.202 1.198-40.458 13.332-11.808 22.13-28.6 22.13-47.8zM439.706 867.738c0-50.996-41.4-92.396-92.274-92.396-51.068 0-92.528 41.4-92.528 92.396 0 51.128 41.462 92.262 92.528 92.262 50.872 0 92.274-41.134 92.274-92.262z" />
<glyph unicode="&#xe635;" glyph-name="dog" d="M903.394 56.648c-3.676 0-7.444 0.512-11.008-0.102-10.894-1.842-19.754 7.63-20.86 17.98-0.634 5.796-3.41 9.278-9.278 10.004-6.462 0.778-7.054 5.028-6.246 10.23 0.87 5.55 3.328 10.096 8.048 13.322 4.178 2.846 8.644 4.966 13.466 6.544 5.764 1.864 13.66 0.798 15.698 8.632 2.51 9.606 5.816 19.506-1.414 28.794-1.22 1.546-2.674 3.41-2.816 5.232-1.044 12.924-10.66 19.466-19.424 26.614-4.946 4.034-9.462 8.418-13.404 13.456-2.448 3.154-4.894 6.492-7.966 8.94-19.578 15.576-36.506 34.232-57.528 48.168-12.586 8.326-23.356 18.904-31.764 31.652-2.438 3.698-5.5 7.198-9.442 8.786-9.83 3.994-17.684 10.434-25.364 17.5-4.924 4.526-11.254 7.106-17.87 8.684-12.432 2.948-12.422 2.99-20.1-7.486-8.254-11.264-27.26-15.298-39.802-7.26-7.578 4.864-14.572 4.936-22.816 3.134-21.504-4.73-42.834-9.842-63.264-18.226-5.018-2.058-10.466-1.914-15.842-1.914-35.778 0-71.558-0.030-107.324-0.072-3.676 0-7.454 0.42-11.018-0.256-14.55-2.754-23.236-7.996-24.504-22.826-1.382-16.23-6.186-32.144-8.468-48.342-3.564-25.394-7.496-50.862-3.246-76.626 0.788-4.762 0.532-9.708-3.41-13.024-5.674-4.772-7.014-11.746-10.444-17.582-7.822-13.312-13.856-29.226-32.256-32.726-5.836-1.106-11.438-3.726-16.998-6-10.066-4.096-20.254-3.84-30.514-1.198-6.512 1.678-22.2 24.422-21.536 30.884 0.634 6.134 10.752 16.23 18.77 17.746 7.966 1.516 15.728 2.324 20.264 10.702 5.746 10.62 9.348 21.576 6.984 33.638-3.676 18.812-3.276 37.836-4.076 56.832-0.892 20.992 0.298 42.168-5.14 62.812-2.068 7.844-2.016 15.932-1.678 23.942 0.338 7.966-2.5 14.028-8.376 19.414-11.786 10.812-24.782 20.51-34.162 33.678-16.916 23.726-37.080 45.578-44.012 75.222-1.178 5.018-0.84 9.656-0.328 14.726 1.586 15.924 7.004 31.19 7.608 47.196 0.41 10.854-4.658 20.092-10.854 28.406-6.502 8.724-11.58 17.766-13.794 28.57-2.632 12.892-6.002 15.986-19.15 15.514-16.998-0.614-32.276 5.336-47.432 11.306-9.432 3.716-16.508 11.304-20.92 20.736-3.144 6.738-6.81 13.056-12.462 18.002-4.752 4.168-6.84 9.8-8.746 15.534-2.418 7.28-4.638 14.55-8.55 21.33-4.218 7.312-2.684 13.866 4.71 18.116 15.246 8.756 29.564 19.59 48.118 21.402 10.394 1.014 17.45 10.506 16.558 21.198-0.748 8.878 3.040 14.028 10.354 18.688 26.174 16.66 55.48 22.538 85.556 25.774 10.026 1.074 19.496-1.496 25.918-10.158 15.022-20.274 34.12-36.69 51.598-54.61 6.666-6.83 11.918-14.070 14.88-23.336 7.536-23.532 21.248-42.302 41.266-57.57 14.396-10.976 30.208-18.134 46.378-25.14 4.352-1.884 8.754-3.604 12.072-6.942 8.294-8.336 18.492-11.848 29.892-12.144 10.23-0.266 18.78-3.698 25.928-11.162 6.062-6.338 13.6-9.266 22.62-8.57 12.432 0.952 24.658-1.782 36.924-3.052 13.024-1.352 26.020-2.028 39.034-1.556 29.45 1.054 58.756-2.1 88.156-2.52 15.246-0.216 30.35-4.26 45.866-3.748 10.722 0.348 21.34 1.238 31.938 2.642 5.376 0.706 10.65 2.202 15.094 5.15 17.93 11.91 33.914 25.816 43.93 45.426 1.966 3.87 3.37 8.11 5.774 11.674 10.63 15.678 12.678 33.556 9.544 51.046-2.948 16.374-8.376 31.908-22.548 44.278-24.432 21.33-52.614 35.012-81.88 47.412-21.106 8.95-37.428 24.238-52.88 40.602-0.9 0.952-1.576 2.182-2.12 3.39-2.018 4.598-4.762 9.586-0.462 13.978 3.942 4.034 8.846 1.874 13.086-0.072 4.536-2.080 9.042-4.424 13.158-7.23 25.508-17.306 53.904-27.524 83.742-34.028 11.634-2.54 20.696-9 29.194-16.722 16.538-15.012 34.222-28.878 45.374-48.988 18.524-33.372 23.408-67.644 8.13-103.598-7.188-16.906-14.542-33.762-21.462-50.78-3.256-8.038-7.772-14.736-15.482-18.996-6.84-3.768-9.308-9.636-9.85-17.326-0.982-13.65 1.74-25.404 11.356-35.932 11.674-12.75 15.76-28.538 17.828-45.764 1.966-16.374 0.48-31.63-3.134-47.462-3.268-14.326-3.164-29.124 2.528-43.388 3.38-8.48 4.126-17.674 3.442-26.674-1.034-13.434 3.726-24.074 13.332-33.096 12.41-11.664 23.86-24.27 36.904-35.328 14.346-12.164 22.63-28.14 27.638-46.448 5.468-19.968 6.788-40.008 6.83-60.498 0.020-12.278 2.386-24.544 3.758-36.812 0.256-2.324 0.88-4.598 1.198-6.912 2.6-18.268-5.212-29.654-23.112-33.852-7.23-1.74-14.572-1.208-21.914-0.572z" />
<glyph unicode="&#xe636;" glyph-name="climate-control" d="M589.64 153.62v718.49c0 42.824-34.826 77.65-77.64 77.65s-77.64-34.826-77.64-77.65v-718.5c-21.7-20.602-35.318-49.634-35.318-81.838 0-62.29 50.678-112.956 112.956-112.956 62.29 0 112.956 50.668 112.956 112.956 0 32.216-13.62 61.246-35.318 81.848zM512-0.216c-39.7 0-71.998 32.298-71.998 71.996 0 26.286 14.214 49.274 35.318 61.838v738.488c0 20.234 16.456 36.69 36.68 36.69 20.234 0 36.68-16.456 36.68-36.69v-37.54h-26.44c-9.892 0-17.92-8.028-17.92-17.92s8.028-17.92 17.92-17.92h26.44v-40.96h-26.44c-9.892 0-17.92-8.028-17.92-17.92s8.028-17.92 17.92-17.92h26.44v-40.97h-26.44c-9.892 0-17.92-8.028-17.92-17.92s8.028-17.92 17.92-17.92h26.44v-40.97h-26.44c-9.892 0-17.92-8.028-17.92-17.92s8.028-17.92 17.92-17.92h26.44v-40.96h-26.44c-9.892 0-17.92-8.028-17.92-17.92s8.028-17.92 17.92-17.92h26.44v-357.898c21.106-12.564 35.318-35.552 35.318-61.838 0-39.69-32.298-71.986-71.996-71.986zM536.442 123.884v302.89h-48.692v-302.786c-20.174-9.216-34.212-29.522-34.212-53.146 0-32.288 26.174-58.46 58.46-58.46s58.46 26.174 58.46 58.46c0 23.542-13.948 43.776-34.018 53.044z" />
<glyph unicode="&#xe637;" glyph-name="bluetooth" d="M469.333-85.333h85.333v85.333h-85.333v-85.333zM298.667-85.333h85.333v85.333h-85.333v-85.333zM640-85.333h85.333v85.333h-85.333v-85.333zM755.413 695.254l-243.413 243.413h-42.667v-323.627l-195.627 195.627-60.373-60.373 238.293-238.293-238.293-238.293 60.373-60.373 195.627 195.627v-323.627h42.667l243.413 243.413-183.040 183.253 183.040 183.253zM554.667 775.254l80.213-80.213-80.213-80v160.213zM634.88 328.747l-80.213-80v160.213l80.213-80.213z" />
<glyph unicode="&#xe638;" glyph-name="video" d="M725.333 490.667v149.333c0 23.467-19.2 42.667-42.667 42.667h-512c-23.467 0-42.667-19.2-42.667-42.667v-426.667c0-23.467 19.2-42.667 42.667-42.667h512c23.467 0 42.667 19.2 42.667 42.667v149.333l170.667-170.667v469.333l-170.667-170.667z" />
<glyph unicode="&#xe639;" glyph-name="width" d="M844.626 471.254v81.552l111.932-111.974-111.932-111.964v80.948h-653.884v-80.948l-111.934 111.964 111.934 111.986v-81.55h653.884zM67.604 631.276v-368.682zM57.364 631.276v-368.682h20.48v368.682h-20.48zM967.762 632.402v-368.672zM957.522 632.402v-368.672h20.48v368.672h-20.48z" />
<glyph unicode="&#xe63a;" glyph-name="edit" d="M128 202.667v-160h160l472.107 472.107-160 160-472.107-472.107zM883.413 638.080c16.64 16.64 16.64 43.733 0 60.373l-99.627 99.627c-16.64 16.64-43.733 16.64-60.373 0l-78.080-78.080 160-160 78.080 78.080z" />
<glyph unicode="&#xe63b;" glyph-name="mail" d="M853.333 768h-682.667c-47.147 0-84.907-38.187-84.907-85.333l-0.427-512c0-47.147 38.187-85.333 85.333-85.333h682.667c47.147 0 85.333 38.187 85.333 85.333v512c0 47.147-38.187 85.333-85.333 85.333zM853.333 597.334l-341.333-213.333-341.333 213.333v85.333l341.333-213.333 341.333 213.333v-85.333z" />
<glyph unicode="&#xe63c;" glyph-name="minus-circle-full" d="M512 853.334c-235.733 0-426.667-190.933-426.667-426.667s190.933-426.667 426.667-426.667 426.667 190.933 426.667 426.667-190.933 426.667-426.667 426.667zM725.333 384h-426.667v85.333h426.667v-85.333z" />
<glyph unicode="&#xe63d;" glyph-name="minus-circle" d="M298.667 469.334v-85.333h426.667v85.333h-426.667zM512 853.334c-235.733 0-426.667-190.933-426.667-426.667s190.933-426.667 426.667-426.667 426.667 190.933 426.667 426.667-190.933 426.667-426.667 426.667zM512 85.334c-188.16 0-341.333 153.173-341.333 341.333s153.173 341.333 341.333 341.333 341.333-153.173 341.333-341.333-153.173-341.333-341.333-341.333z" />
<glyph unicode="&#xe63e;" glyph-name="clock" d="M938.667 694.614l-196.053 164.48-54.827-65.28 196.053-164.48 54.827 65.28zM336.213 794.027l-54.827 65.28-196.053-164.48 54.827-65.28 196.053 164.48zM533.333 597.334h-64v-256l202.453-121.813 32.213 52.693-170.667 101.12v224zM511.787 768c-212.267 0-383.787-171.947-383.787-384s171.52-384 383.787-384 384.213 171.947 384.213 384-171.947 384-384.213 384zM512 85.334c-164.907 0-298.667 133.76-298.667 298.667s133.76 298.667 298.667 298.667 298.667-133.76 298.667-298.667-133.547-298.667-298.667-298.667z" />
<glyph unicode="&#xe63f;" glyph-name="flight-no" d="M554.667 554.667v234.667c0 35.413-28.587 64-64 64s-64-28.587-64-64v-157.013l333.867-333.867 135.467-42.453v85.333l-341.333 213.333zM128 713.6l212.693-212.693-255.36-159.573v-85.333l341.333 106.667v-234.667l-85.333-64v-64l149.333 42.667 149.333-42.667v64l-85.333 64v158.933l244.267-244.267 54.4 54.4-670.933 670.933-54.4-54.4z" />
<glyph unicode="&#xe640;" glyph-name="shift" d="M1024.728 701.184c0 58.020-48.27 105.216-106.29 105.216-58 0-103.67-47.196-103.67-105.216 0-51.026 35.154-93.654 86.354-103.178v-129.526h-368.64v129.526c40.96 9.522 84.274 52.152 84.274 103.178 0 58.020-47.452 105.216-105.462 105.216-58.020 0-104.9-47.196-104.9-105.216 0-51.026 33.916-93.654 85.116-103.178v-129.526h-368.63v129.526c51.2 9.522 86.406 52.152 86.406 103.178 0 58.020-46.388 105.216-104.398 105.216s-106.496-47.196-106.496-105.216c0-51.026 32.328-93.654 83.528-103.178v-297.862c-51.2-9.524-83.128-52.164-83.128-103.198 0-58 48.036-105.196 106.046-105.196s104.038 47.196 104.038 105.196c0 51.036-34.784 93.676-85.984 103.198v127.376h368.64v-127.376c-51.2-9.524-85.248-52.164-85.248-103.198 0-58 46.962-105.196 104.97-105.196 58 0 105.626 47.196 105.626 105.196 0 51.036-43.428 93.676-84.388 103.198v127.376h384.89c11.244 0 24.698 11.418 24.698 22.67v147.814c40.96 9.524 82.648 52.152 82.648 103.178zM446.586 701.184c0 35.534 28.896 64.44 64.43 64.44s64.43-28.908 64.43-64.44c0-35.522-28.898-64.43-64.43-64.43s-64.43 28.908-64.43 64.43zM41.246 701.184c0 35.534 28.908 64.44 64.43 64.44s64.43-28.908 64.43-64.44c0-35.522-28.908-64.43-64.43-64.43-35.522 0.010-64.43 28.908-64.43 64.43zM170.106 196.936c0-35.524-28.908-64.42-64.43-64.42s-64.43 28.898-64.43 64.42c0 35.544 28.908 64.44 64.43 64.44s64.43-28.898 64.43-64.44zM575.448 196.936c0-35.524-28.898-64.42-64.43-64.42s-64.43 28.898-64.43 64.42c0 35.544 28.896 64.44 64.43 64.44s64.43-28.898 64.43-64.44zM917.37 636.764c-35.534 0-64.43 28.908-64.43 64.43 0 35.534 28.898 64.44 64.43 64.44 35.524 0 64.42-28.908 64.42-64.44s-28.898-64.43-64.42-64.43z" />
<glyph unicode="&#xe641;" glyph-name="bed" d="M923.456 322.406v-107.174c0-1.486-0.116-2.97-0.294-4.416h-63.258c-0.218 1.434-0.308 2.932-0.308 4.416v53.286h-708.032v-55.936c0-0.59-0.026-1.19-0.064-1.766h-58.432c-0.038 0.602-0.064 1.178-0.064 1.766v444.518c0 16.128 13.146 29.262 29.326 29.262 8.064 0 15.36-3.264 20.672-8.59 5.312-5.26 8.576-12.596 8.576-20.658v-335.36l771.878 0.654zM340.954 482.036c0-41.164-33.37-74.534-74.534-74.534s-74.534 33.37-74.534 74.534c0 41.164 33.37 74.534 74.534 74.534s74.534-33.37 74.534-74.534zM923.072 483.7v-104.948h-550.182v104.948c0 24.41 19.776 44.198 44.186 44.198h461.81c24.41 0 44.186-19.788 44.186-44.198z" />
<glyph unicode="&#xe642;" glyph-name="tv" d="M511.498 68.352c2.17 2.54 1.198 5.888-0.338 8.612 1.608-2.774 2.662-6.134 0.338-8.612zM660.696 71.844c-1.536-1.74-4.618-2.958-10.034-3.38-0.922-0.102-2.264-0.102-3.89-0.216-4.198-0.114-10.65-0.216-18.852-0.41-4.496 0-9.422 0-14.838-0.114-8.304 0-19.662 0-33.066-0.102-19.794-0.114-41.678-0.114-63.386-0.114-37.478 0-74.034 0.114-96.87 0.216-6.348 0-11.572 0.114-15.564 0.114-13.21 0.124-23.246 0.298-28.366 0.522-0.716 0-1.536 0-2.356 0.102-0.922 0.114-1.74 0.216-2.458 0.318-17.714 2.438-3.686 16.568-3.686 16.568s21.504 16.814 32.154 33.576c0 0 3.174 0.114 6.144 26.010 4.096 36.658 7.68 65.116 7.68 65.116h197.54c0 0 3.492-28.456 7.68-65.116 2.856-25.898 6.052-26.010 6.052-26.010 10.024-15.77 29.49-31.538 31.928-33.496 0.124 0 0.216-0.114 0.216-0.114s0.716-0.706 1.638-1.924c2.222-2.734 5.386-7.966 2.336-11.552zM510.986 81.1c0.654-0.798 1.382-1.832 2.018-2.958-0.634 1.106-1.362 2.14-2.016 2.958zM513.322 223.366c-32.452-0.134-456.162-1.476-476.806 0-21.452 1.504-22.998 23-22.998 23v562.658c0 18.4 22.99 19.456 22.99 19.456h950.968c0 0 23-1.056 23-19.456v-562.668c0 0-1.536-21.494-23-22.99-20.174-1.444-426.354-0.144-474.154 0zM971.756 790.62h-918.374v-519.74h918.384v519.74h-0.010z" />
<glyph unicode="&#xe643;" glyph-name="washing-machine2" d="M369.98 386.16c0-85.044 68.874-153.898 153.896-153.898 63.1 0 117.35 37.99 141.096 92.334h-33.382c-25.486 0-46.162 20.696-46.162 46.172v30.792c0 25.486 20.674 46.162 46.162 46.162h33.382c-23.746 54.344-77.998 92.344-141.096 92.344-85.034-0.020-153.896-68.884-153.896-153.906zM677.774 416.932c-17.028 0-30.792-13.752-30.792-30.77 0-17.028 13.764-30.802 30.792-30.802h30.78c17.020 0 30.78 13.774 30.78 30.802 0 17.020-13.764 30.77-30.78 30.77h-30.78zM166.062 959.416c-50.984 0-92.334-41.36-92.334-92.344v-838.728c0-50.986 41.36-92.356 92.334-92.356h715.622c50.976 0 92.334 41.36 92.334 92.356v838.738c0 50.986-41.36 92.344-92.334 92.344h-715.622zM666.236 897.852h215.46c17.028 0 30.78-13.752 30.78-30.77v-61.552c0-17.028-13.752-30.78-30.78-30.78h-215.46c-17.028 0-30.78 13.752-30.78 30.78v61.552c0 17.020 13.742 30.77 30.78 30.77zM277.638 386.16c0 135.996 110.234 246.23 246.242 246.23s246.23-110.234 246.23-246.23c0-136.018-110.222-246.24-246.23-246.24s-246.24 110.222-246.24 246.24z" />
<glyph unicode="&#xe644;" glyph-name="bar" d="M60.232 959.99c-30.116 0-60.232-0.042-60.232-15.052 0-15.094 20.654-33.004 30.116-45.178l391.534-470.606v-372.692l-180.704-60.23c-30.116-10.034-60.23-30.116-60.23-60.23h662.582c0 30.106-30.096 50.186-60.23 60.23l-180.692 60.24v372.702l391.522 470.586c9.462 12.174 30.096 30.084 30.096 45.178 0 15.022-30.096 15.064-60.222 15.064l-903.538-0.010z" />
<glyph unicode="&#xe645;" glyph-name="diesel" horiz-adv-x="768" d="M725.33 364.596v296.736c0 49.11-36.014 88.044-57.518 111.32-2.376 2.56-4.618 4.966-6.626 7.218l-72.182 72.234-61.922 51.854-30.156-30.168 51.866-61.942 12.996-12.984v-144.65c0-31.376 25.508-56.882 56.894-56.882h49.768v-234.67l42.558-313.98c-0.604-30.862-25.784-55.798-56.78-55.798-31.354 0-56.862 25.486-56.894 56.832h0.020v398.234l-0.020 0.050c0 47.052-38.268 85.33-85.33 85.33h-85.33v343.706c0 45.752-38.276 82.964-85.34 82.964h-256c-47.052 0-85.33-37.212-85.33-82.964v-941.036h426.67v540.448h85.33c15.678 0 28.436-12.77 28.436-28.448l0.020-0.052v-398.162h-0.020c0-62.74 51.048-113.778 113.778-113.778 62.75-0.010 113.788 51.026 113.788 113.766l-42.67 314.82zM668.436 640h-49.766c-7.854 0-14.234 6.38-14.234 14.222v101.99l14.908-14.908c2.048-2.272 4.302-4.71 6.688-7.292 17.89-19.354 42.404-45.856 42.404-72.684v-21.33zM56.894 877.036c0 14.376 12.77 26.070 28.448 26.070h256c15.678 0 28.448-11.694 28.448-26.070v-218.082c0-14.378-12.77-26.072-28.448-26.072h-256c-15.676 0-28.448 11.694-28.448 26.072v218.082z" />
<glyph unicode="&#xe646;" glyph-name="car-door" d="M819.968 716.216c30.25 0 62.936-25.836 69.97-55.182l104.98-438.948c2.846-11.94 1.076-22.722-4.966-30.392-6.072-7.7-16.158-11.9-28.384-11.9h-882.924c-28.068 0-50.912 22.804-50.912 50.884v434.628c0 28.068 22.836 50.914 50.912 50.914h741.326zM819.968 743.966h-741.326c-43.244 0-78.644-35.38-78.644-78.664v-434.628c0-43.254 35.4-78.654 78.644-78.654h882.914c43.244 0 70.4 34.438 60.356 76.492l-104.98 438.928c-10.056 42.106-53.688 76.524-96.962 76.524v0zM536.31 556.666l-75.254 77.804-75.244-77.804h41.728v-62.432h67.040v62.432zM855.684 371.518c-10.056 42.024-53.678 76.472-96.932 76.472h-707.9v-217.312c0-15.298 12.484-27.76 27.79-27.76h817.388l-40.346 168.602zM461.056 252.284l-75.254 77.774h41.728v62.474h67.040v-62.474h41.728l-75.244-77.774z" />
<glyph unicode="&#xe647;" glyph-name="smoking" horiz-adv-x="1418" d="M120.516 199.874h949.948v-184.318h-949.948v184.318zM1112.998 199.874h85.070v-184.318h-85.070v184.318zM1226.424 199.874h85.070v-184.318h-85.070v184.318zM1257.064 284.106l-39.798 15.072c2.338 6.182 5.402 12.972 8.704 20.302 13.102 28.98 27.944 61.832 14.15 95.548-14.42 35.304-58.586 67.516-131.262 95.76-231.346 89.89-189.14 368.040-188.684 370.834l41.996-6.778c-1.602-10.052-36.962-247.072 162.1-324.428 85.182-33.092 135.97-72.126 155.238-119.326 20.7-50.644-0.652-97.888-14.774-129.15-2.906-6.424-5.616-12.392-7.67-17.836zM1176.374 243.372l-39.798 15.044c2.338 6.196 5.402 13.002 8.704 20.346 13.102 28.98 27.932 61.846 14.15 95.562-14.434 35.29-58.598 67.504-131.262 95.732-231.362 89.904-189.14 368.054-188.684 370.848l41.996-6.778c-1.602-10.052-36.962-247.072 162.1-324.442 85.17-33.078 135.956-72.096 155.224-119.282 20.714-50.658-0.624-97.9-14.744-129.178-2.906-6.452-5.644-12.406-7.684-17.85z" />
<glyph unicode="&#xe648;" glyph-name="flight-up1" d="M896 256v85.333l-341.333 213.333v234.667c0 35.413-28.587 64-64 64s-64-28.587-64-64v-234.667l-341.333-213.333v-85.333l341.333 106.667v-234.667l-85.333-64v-64l149.333 42.667 149.333-42.667v64l-85.333 64v234.667l341.333-106.667z" />
<glyph unicode="&#xe649;" glyph-name="chevro-up" d="M316.373 280.96l195.627 195.627 195.627-195.627 60.373 60.373-256 256-256-256z" />
<glyph unicode="&#xe64a;" glyph-name="chevron-right" d="M366.293 236.374l195.627 195.627-195.627 195.627 60.373 60.373 256-256-256-256z" />
<glyph unicode="&#xe64b;" glyph-name="cloud2" d="M825.813 510.507c-29.013 146.773-158.507 257.493-313.813 257.493-123.307 0-230.187-69.973-283.733-172.16-128.213-13.867-228.267-122.453-228.267-254.507 0-141.44 114.56-256 256-256h554.667c117.76 0 213.333 95.573 213.333 213.333 0 112.64-87.68 203.947-198.187 211.84zM426.667 213.334l-149.333 149.333 60.373 60.373 88.96-88.96 220.8 220.8 60.373-60.373-281.173-281.173z" />
<glyph unicode="&#xe64c;" glyph-name="car-rental" horiz-adv-x="1472" d="M318.718 960c-80.019 0-144.872-64.858-144.872-144.872 0-9.065 0.849-17.939 2.434-26.541l-176.28-176.279v-86.924c0-16.004 12.971-28.975 28.974-28.975h28.975v28.975h57.949v57.949h57.948v57.948h57.949l37.599 37.6c15.393-5.569 32.008-8.625 49.324-8.625 80.020 0 144.872 64.858 144.872 144.872s-64.852 144.872-144.872 144.872zM362.124 815.071c-24.006 0-43.462 19.456-43.462 43.462 0 24 19.456 43.462 43.462 43.462s43.461-19.462 43.461-43.462c0-24.006-19.455-43.462-43.461-43.462zM575.941 329.143c0 25.144-8.953 46.667-26.857 64.571s-39.429 26.857-64.571 26.857-46.666-8.953-64.571-26.857-26.857-39.428-26.857-64.571c0-25.143 8.952-46.666 26.857-64.57s39.428-26.857 64.571-26.857 46.667 8.952 64.571 26.857c17.904 17.904 26.857 39.427 26.857 64.57zM596.512 512h580.571l-50.856 204c-0.763 3.047-3.429 6.381-8 10s-8.571 5.429-12 5.429h-438.858c-3.429 0-7.429-1.81-12-5.429s-7.238-6.953-8-10l-50.857-204zM1380.512 329.143c0 25.144-8.953 46.667-26.857 64.571s-39.429 26.857-64.571 26.857-46.666-8.953-64.57-26.857c-17.905-17.904-26.857-39.428-26.857-64.571s8.952-46.666 26.857-64.57c17.904-17.905 39.428-26.857 64.57-26.857s46.667 8.952 64.571 26.857c17.904 17.904 26.857 39.427 26.857 64.57zM1471.941 384v-219.429c0-5.334-1.715-9.715-5.144-13.144s-7.809-5.143-13.143-5.143h-54.857v-73.144c0-30.476-10.666-56.38-32-77.714-21.333-21.333-47.237-32-77.714-32s-56.38 10.667-77.714 32c-21.333 21.334-32 47.238-32 77.714v73.144h-585.142v-73.144c0-30.476-10.667-56.38-32-77.714s-47.238-32-77.714-32-56.38 10.667-77.714 32c-21.333 21.334-32 47.238-32 77.714v73.144h-54.857c-5.333 0-9.714 1.714-13.143 5.143s-5.143 7.81-5.143 13.144v219.429c0 35.429 12.477 65.619 37.429 90.571s55.143 37.428 90.571 37.429h16l60 239.429c8.762 35.809 28.572 65.809 59.429 90s64.953 36.286 102.286 36.286h438.857c37.333 0 71.429-12.095 102.286-36.286s50.667-54.191 59.429-90l60-239.429h16c35.429 0 65.619-12.477 90.571-37.429s37.428-55.144 37.429-90.571h-0.002z" />
<glyph unicode="&#xe64d;" glyph-name="instagram-normal" d="M787.692 684.308c-21.701 0-39.385 17.684-39.385 39.385v78.769c0 21.701 17.684 39.385 39.385 39.385h78.769c21.701 0 39.385-17.684 39.385-39.385v-78.769c0-21.701-17.684-39.385-39.385-39.385h-78.769zM512 598.134c-28.593 0-54.981-8.389-77.706-22.174 7.089 2.206 14.454 3.663 22.213 3.663 42.063 0 76.13-34.068 76.13-76.17 0-41.984-34.068-76.13-76.13-76.13s-76.13 34.107-76.13 76.13c0 7.838 1.536 15.202 3.702 22.252-13.863-22.725-22.213-49.113-22.213-77.706 0-82.983 67.151-150.174 150.174-150.174 82.905 0 150.174 67.151 150.174 150.174s-67.308 150.134-150.213 150.134zM512 684.308c130.481 0 236.308-105.787 236.308-236.308s-105.866-236.308-236.308-236.308c-130.481 0-236.308 105.787-236.308 236.308s105.826 236.308 236.308 236.308zM512 763.077c-173.726 0-315.077-141.351-315.077-315.077s141.351-315.077 315.077-315.077 315.077 141.351 315.077 315.077-141.351 315.077-315.077 315.077v0zM832 960h-640c-106.063 0-192-85.937-192-192v-640c0-106.063 85.937-192 192-192h640c106.063 0 192 85.937 192 192v640c0 106.063-85.937 192-192 192zM945.231 605.538h-257.457c37.534-41.866 60.534-96.926 60.534-157.538 0-130.521-105.866-236.308-236.308-236.308-130.481 0-236.308 105.787-236.308 236.308 0 60.613 23.001 115.712 60.534 157.538h-257.457v162.462c0 62.425 50.806 113.231 113.231 113.231h640c62.464 0 113.231-50.806 113.231-113.231v-162.462z" />
<glyph unicode="&#xe64e;" glyph-name="car" d="M807.253 724.907c-8.747 25.173-32.64 43.093-60.587 43.093h-469.333c-27.947 0-51.84-17.92-60.587-43.093l-88.747-255.573v-341.333c0-23.467 19.2-42.667 42.667-42.667h42.667c23.68 0 42.667 19.2 42.667 42.667v42.667h512v-42.667c0-23.467 19.2-42.667 42.667-42.667h42.667c23.68 0 42.667 19.2 42.667 42.667v341.333l-88.747 255.573zM277.333 298.667c-35.413 0-64 28.587-64 64s28.587 64 64 64 64-28.587 64-64-28.587-64-64-64zM746.667 298.667c-35.413 0-64 28.587-64 64s28.587 64 64 64 64-28.587 64-64-28.587-64-64-64zM213.333 512l64 192h469.333l64-192h-597.333z" />
<glyph unicode="&#xe64f;" glyph-name="twitter1" d="M1024 765.477c-37.689-16.7-78.129-28.026-120.618-33.083 43.384 25.98 76.594 67.187 92.334 116.139-40.696-24.059-85.616-41.529-133.48-50.999-38.328 40.888-92.846 66.356-153.316 66.356-116.010 0-210.072-94.062-210.072-210.009 0-16.444 1.856-32.505 5.44-47.864-174.559 8.768-329.345 92.399-432.941 219.481-18.109-30.971-28.411-67.059-28.411-105.581 0-72.883 37.113-137.191 93.423-174.815-34.426 1.151-66.804 10.621-95.15 26.363v-2.624c0-101.741 72.435-186.652 168.48-205.978-17.597-4.735-36.153-7.359-55.35-7.359-13.565 0-26.683 1.344-39.544 3.904 26.746-83.505 104.301-144.228 196.188-145.893-71.859-56.31-162.466-89.776-260.879-89.776-16.956 0-33.658 1.024-50.102 2.88 92.975-59.702 203.354-94.511 321.988-94.511 386.423 0 597.648 320.069 597.648 597.648l-0.704 27.195c41.271 29.437 76.976 66.421 105.067 108.526z" />
<glyph unicode="&#xe650;" glyph-name="flight-right" horiz-adv-x="1110" d="M1110.231 451.983c0.015 2.823 0 5.602-0.3 8.2-0.075 0.676 0.015 1.261-0.075 1.952h-0.27c-9.656 66.993-119.825 62.203-119.825 62.203l-285.588 8.365-225.098 385.845c-154.65 122.243-145.925-42.124-145.925-42.124l133.521-359.61-224.587-1.877-148.148 142.006c-131.539 60.070-85.3-61.812-85.3-61.812l100.107-148.674-100.708-152.578c0 0-46.705-123.684 85.074-58.523l148.719 147.772 224.587 6.803-134.947-364.821c0 0-9.356-164.697 145.79-36.463l226.629 394.57 285.603-8.365c0 0 110.169-0.526 120.080 66.873h0.27c0.090 0.676 0 1.246 0.075 1.907 0.285 2.658 0.33 5.481 0.315 8.35z" />
<glyph unicode="&#xe651;" glyph-name="arrival-flight" horiz-adv-x="1152" d="M452.651 960c43.989-5.47 84.533-9.355 124.509-16.443 8.188-1.451 18.464-13.904 20.646-22.996 34.388-143.241 68.146-286.637 100.541-430.347 5.102-22.633 14.35-33.674 37.106-40.254 107.647-31.123 214.724-64.227 321.919-96.919 15.913-4.85 32.1-9.779 46.863-17.236 41.131-20.791 57.92-66.544 41.276-108.785-16.309-41.399-53.862-61.057-99.598-47.343-141.025 42.309-281.631 86.001-422.253 129.644-195.501 60.661-390.863 121.757-586.269 182.702-7.831 2.439-15.561 5.196-23.705 7.926-4.493 87.201-8.931 173.387-13.686 265.723 37.441-11.258 71.924-19.686 104.616-32.647 9.522-3.779 16.561-19.653 20.228-31.396 18.587-59.539 58.445-89.4 119.39-102.936 69.268-15.388 136.414-40.338 208.417-62.33 0 142.387 0 282.072 0 423.638zM854.392 17.53c0-28.115 0-53.874 0-81.53-371.271 0-462.536 0-834.683 0 0 26.585 0 53.008 0 81.53 370.546 0 461.782 0 834.683 0zM452.416 318.49c21.835 0.447 43.397-19.697 44.686-41.75 1.334-22.723-20.122-45.529-43.263-45.976-23.292-0.452-44.887 21.154-44.513 44.536 0.357 22.086 20.953 42.733 43.090 43.19zM598.783 247.135c-0.458-23.443-19.257-42.297-42.403-42.532-24.503-0.251-43.542 19.502-43.034 44.653 0.469 23.437 19.251 42.119 42.454 42.225 24.648 0.117 43.475-19.307 42.984-44.346z" />
<glyph unicode="&#xe652;" glyph-name="message" d="M853.333 853.334h-682.667c-47.147 0-84.907-38.187-84.907-85.333l-0.427-768 170.667 170.667h597.333c47.147 0 85.333 38.187 85.333 85.333v512c0 47.147-38.187 85.333-85.333 85.333zM768 341.334h-512v85.333h512v-85.333zM768 469.334h-512v85.333h512v-85.333zM768 597.334h-512v85.333h512v-85.333z" />
<glyph unicode="&#xe653;" glyph-name="chevron-down" d="M316.373 588.374l195.627-195.627 195.627 195.627 60.373-60.373-256-256-256 256z" />
<glyph unicode="&#xe654;" glyph-name="chevron-left" d="M657.707 241.707l-195.627 195.627 195.627 195.627-60.373 60.373-256-256 256-256z" />
<glyph unicode="&#xe655;" glyph-name="birthday-cake2" d="M512 640c47.147 0 85.333 38.187 85.333 85.333 0 16-4.48 31.147-12.16 43.947l-73.173 126.72-73.173-126.72c-7.68-12.8-12.16-27.947-12.16-43.947 0-47.147 38.187-85.333 85.333-85.333zM896 42.667v170.667c0 47.147-38.187 85.333-85.333 85.333h-42.667v128c0 47.147-38.187 85.333-85.333 85.333h-128v85.333h-85.333v-85.333h-128c-47.147 0-85.333-38.187-85.333-85.333v-128h-42.667c-47.147 0-85.333-38.187-85.333-85.333v-170.667h-85.333v-85.333h938.667v85.333h-85.333z" />
<glyph unicode="&#xe656;" glyph-name="chevron-thin-down" d="M891.802 660.019c13.926 13.722 36.301 13.722 50.125 0s13.875-35.891 0-49.613l-404.89-400.896c-13.824-13.722-36.198-13.722-50.125 0l-404.89 400.896c-13.824 13.722-13.824 35.891 0 49.613 13.875 13.722 36.301 13.722 50.125 0l379.853-365.619 379.802 365.619z" />
<glyph unicode="&#xe657;" glyph-name="chevron-thin-left" d="M711.219 80.998c13.722-13.926 13.722-36.301 0-50.125s-35.891-13.875-49.613 0l-400.896 404.89c-13.722 13.824-13.722 36.198 0 50.125l400.896 404.89c13.722 13.824 35.891 13.824 49.613 0 13.722-13.875 13.722-36.301 0-50.125l-365.619-379.853 365.619-379.802z" />
<glyph unicode="&#xe658;" glyph-name="chevron-thin-right" d="M678.4 460.8l-365.619 379.904c-13.722 13.824-13.722 36.198 0 50.125 13.722 13.824 35.891 13.824 49.613 0l400.896-404.89c13.722-13.875 13.722-36.301 0-50.125l-400.896-404.89c-13.722-13.875-35.891-13.824-49.613 0-13.722 13.773-13.722 36.198 0 50.125l365.619 379.75z" />
<glyph unicode="&#xe659;" glyph-name="chevron-thin-up" d="M132.198 261.581c-13.926-13.722-36.301-13.722-50.125 0s-13.875 35.891 0 49.613l404.89 400.896c13.824 13.722 36.198 13.722 50.125 0l404.89-400.896c13.824-13.722 13.824-35.891 0-49.613-13.875-13.722-36.301-13.722-50.074 0l-379.904 365.619-379.802-365.619z" />
<glyph unicode="&#xe65a;" glyph-name="sound" d="M271.974 739.021c-57.446-57.293-308.582-415.488-91.597-632.422 216.883-216.986 574.976 34.202 632.525 91.597 57.395 57.293-17.152 225.024-166.502 374.374-149.453 149.453-316.979 224.051-374.426 166.451zM746.291 248.013c-16.998-16.794-148.224 23.398-274.637 149.914-126.31 126.413-166.707 257.69-149.709 274.586 16.794 16.998 148.173-23.398 274.432-149.811 126.515-126.31 166.81-257.69 149.914-274.688zM790.221 666.522l97.485 97.587c20.019 20.019 20.019 52.378 0 72.397-19.968 20.019-52.378 20.019-72.397 0l-97.485-97.587c-20.019-20.019-20.019-52.429 0-72.397 19.968-19.968 52.378-19.968 72.397 0zM569.549 778.24c24.73-13.722 55.859-4.864 69.632 19.866l55.654 98.611c13.722 24.73 4.864 55.859-19.866 69.632-24.678 13.773-55.859 4.864-69.632-19.866l-55.654-98.611c-13.722-24.781-4.813-55.962 19.866-69.632zM1017.446 623.821c-13.67 24.73-44.902 33.638-69.632 19.866l-99.328-54.323c-24.73-13.722-33.638-44.954-19.866-69.632 13.722-24.73 44.902-33.638 69.632-19.866l99.328 54.323c24.73 13.773 33.638 44.902 19.866 69.632z" />
<glyph unicode="&#xe65b;" glyph-name="add-user" d="M818.637-6.605c0.563 109.005-111.923 173.517-221.030 220.518-108.698 46.797-143.411 86.221-143.411 170.701 0 50.637 33.178 34.15 47.718 127.027 6.144 38.502 35.43 0.614 41.062 88.525 0 35.021-16.026 43.725-16.026 43.725s8.141 51.866 11.315 91.802c3.277 41.83-20.378 131.072-117.811 158.464-16.998 17.459-28.518 45.158 23.91 72.909-114.688 5.325-141.363-54.682-202.445-98.816-51.968-38.707-65.997-99.994-63.488-132.608 3.328-39.936 11.418-91.802 11.418-91.802s-16.077-8.704-16.077-43.725c5.632-87.962 35.021-50.022 41.114-88.525 14.541-92.877 47.77-76.39 47.77-127.027 0-84.48-10.854-113.152-119.603-159.949-109.107-46.95-143.053-122.214-142.49-231.219 0.154-32.614-0.563-44.595-0.563-44.595h819.2c0 0-0.717 11.981-0.563 44.595zM870.4 460.8v153.6h-102.4v-153.6h-153.6v-102.4h153.6v-153.6h102.4v153.6h153.6v102.4h-153.6z" />
<glyph unicode="&#xe65c;" glyph-name="address" d="M1013.709 708.352l-121.6 93.696c-6.912 4.762-16.589 9.011-26.675 12.134-10.138 3.123-20.634 5.018-29.030 5.018h-350.003l41.011-256h308.992c8.397 0 18.893 1.894 28.979 5.018s19.814 7.424 26.675 12.083l121.6 93.798c6.912 4.659 10.342 10.854 10.342 17.101s-3.43 12.442-10.291 17.152zM435.2 921.6h-51.2c-14.131 0-25.6-11.469-25.6-25.6v-179.2h-170.803c-8.499 0-18.944-1.894-29.030-5.069-10.138-3.072-19.814-7.322-26.675-12.083l-121.6-93.696c-6.912-4.659-10.291-10.906-10.291-17.152 0-6.195 3.379-12.39 10.291-17.152l121.6-93.798c6.861-4.659 16.538-8.96 26.675-12.032 10.086-3.123 20.531-5.018 29.030-5.018h170.803v-435.2c0-14.131 11.469-25.6 25.6-25.6h51.2c14.131 0 25.6 11.469 25.6 25.6v870.4c0 14.131-11.469 25.6-25.6 25.6z" />
<glyph unicode="&#xe65d;" glyph-name="adjust" d="M972.8 501.811c-9.318 0-40.909 0-50.176 0-28.314 0-51.2-18.381-51.2-41.011 0-22.579 22.886-40.909 51.2-40.909 9.318 0 40.909 0 50.176 0 28.262 0 51.2 18.278 51.2 40.909 0 22.579-22.989 41.011-51.2 41.011zM512 742.4c-156.211 0-281.6-125.389-281.6-281.6s125.389-281.6 281.6-281.6c156.16 0 281.6 125.389 281.6 281.6s-125.491 281.6-281.6 281.6zM512 256c-113.203 0-204.8 91.699-204.8 204.8 0 113.203 91.597 204.8 204.8 204.8v-409.6zM153.6 460.8c0 22.579-22.989 41.011-51.2 41.011-9.472 0-41.779 0-51.2 0-28.314 0-51.2-18.381-51.2-41.011 0-22.579 22.886-40.909 51.2-40.909 9.421 0 41.728 0 51.2 0 28.211 0 51.2 18.33 51.2 40.909zM512 819.2c22.579 0 40.909 22.886 40.909 51.2 0 9.421 0 41.779 0 51.2 0 28.314-18.33 51.2-40.909 51.2-22.63 0-41.011-22.886-41.011-51.2 0-9.421 0-41.779 0-51.2 0-28.314 18.381-51.2 41.011-51.2zM512 102.4c-22.63 0-41.011-22.886-41.011-51.2 0-9.421 0-41.779 0-51.2 0-28.314 18.381-51.2 41.011-51.2 22.579 0 40.909 22.886 40.909 51.2 0 9.421 0 41.779 0 51.2 0 28.314-18.33 51.2-40.909 51.2zM889.088 779.981c20.019 20.019 23.245 49.203 7.27 65.178s-45.21 12.698-65.126-7.322c-5.53-5.478-30.362-30.31-35.84-35.789-20.019-20.019-23.245-49.203-7.27-65.178s45.21-12.698 65.178 7.322c5.478 5.53 30.259 30.31 35.789 35.789zM170.701 177.51c-5.53-5.581-30.362-30.413-35.84-35.891-20.019-20.019-23.245-49.101-7.27-65.075s45.21-12.8 65.126 7.219c5.53 5.478 30.362 30.31 35.84 35.789 20.019 20.019 23.245 49.203 7.27 65.229s-45.21 12.646-65.126-7.27zM192.768 837.888c-19.968 20.019-49.203 23.296-65.178 7.322s-12.698-45.21 7.219-65.229c5.53-5.478 30.362-30.31 35.84-35.789 20.019-20.019 49.152-23.296 65.126-7.322s12.749 45.21-7.219 65.178c-5.478 5.53-30.259 30.362-35.789 35.84zM795.341 119.501c5.53-5.478 30.362-30.31 35.84-35.789 20.019-20.019 49.152-23.194 65.126-7.322 15.974 15.974 12.749 45.21-7.27 65.178-5.478 5.478-30.31 30.31-35.789 35.789-20.019 20.019-49.203 23.296-65.229 7.322s-12.698-45.158 7.322-65.178z" />
<glyph unicode="&#xe65e;" glyph-name="aircraft-landing" d="M960.102 151.654c-4.966-13.619-42.086-51.302-308.685 44.954l-261.376 94.362c-90.982 32.819-219.034 84.429-269.21 113.51-35.123 20.326-42.803 65.638-42.803 65.638s-8.346 151.347-13.466 188.621c-5.12 37.274 4.864 43.674 40.755 25.19 22.323-11.52 95.488-131.174 126.157-182.63 77.414-19.507 146.534-38.963 178.842-48.589-13.158 87.91-37.888 252.314-46.746 303.77-8.499 49.306 28.16 27.392 28.16 27.392 16.947-9.728 50.33-33.843 61.747-51.302 77.926-119.091 188.006-337.92 196.403-354.714 45.875-14.336 116.582-37.53 158.822-52.736 110.387-39.885 158.054-155.341 151.398-173.466z" />
</font>
</defs>
</svg>
